  0
SECTION
  2
HEADER
  9
$ACADVER
  1
AC1014
  9
$ACADMAINTVER
 70
     9
  9
$DWGCODEPAGE
  3
ANSI_1252
  9
$INSBASE
 10
0.0
 20
0.0
 30
0.0
  9
$EXTMIN
 10
-86.368837989926
 20
-81.007775228018
 30
0.0
  9
$EXTMAX
 10
31.544837977946
 20
95.205710045043
 30
0.0
  9
$LIMMIN
 10
0.0
 20
0.0
  9
$LIMMAX
 10
12.0
 20
9.0
  9
$ORTHOMODE
 70
     0
  9
$REGENMODE
 70
     1
  9
$FILLMODE
 70
     1
  9
$QTEXTMODE
 70
     0
  9
$MIRRTEXT
 70
     1
  9
$DRAGMODE
 70
     2
  9
$LTSCALE
 40
1.0
  9
$OSMODE
 70
    37
  9
$ATTMODE
 70
     1
  9
$TEXTSIZE
 40
0.2
  9
$TRACEWID
 40
0.05
  9
$TEXTSTYLE
  7
STANDARD
  9
$CLAYER
  8
0
  9
$CELTYPE
  6
BYLAYER
  9
$CECOLOR
 62
   256
  9
$CELTSCALE
 40
1.0
  9
$DELOBJ
 70
     1
  9
$DISPSILH
 70
     0
  9
$DIMSCALE
 40
1.0
  9
$DIMASZ
 40
0.18
  9
$DIMEXO
 40
0.0625
  9
$DIMDLI
 40
0.38
  9
$DIMRND
 40
0.0
  9
$DIMDLE
 40
0.0
  9
$DIMEXE
 40
0.18
  9
$DIMTP
 40
0.0
  9
$DIMTM
 40
0.0
  9
$DIMTXT
 40
0.18
  9
$DIMCEN
 40
0.09
  9
$DIMTSZ
 40
0.0
  9
$DIMTOL
 70
     0
  9
$DIMLIM
 70
     0
  9
$DIMTIH
 70
     1
  9
$DIMTOH
 70
     1
  9
$DIMSE1
 70
     0
  9
$DIMSE2
 70
     0
  9
$DIMTAD
 70
     0
  9
$DIMZIN
 70
     0
  9
$DIMBLK
  1

  9
$DIMASO
 70
     1
  9
$DIMSHO
 70
     1
  9
$DIMPOST
  1

  9
$DIMAPOST
  1

  9
$DIMALT
 70
     0
  9
$DIMALTD
 70
     2
  9
$DIMALTF
 40
25.4
  9
$DIMLFAC
 40
1.0
  9
$DIMTOFL
 70
     0
  9
$DIMTVP
 40
0.0
  9
$DIMTIX
 70
     0
  9
$DIMSOXD
 70
     0
  9
$DIMSAH
 70
     0
  9
$DIMBLK1
  1

  9
$DIMBLK2
  1

  9
$DIMSTYLE
  2
STANDARD
  9
$DIMCLRD
 70
     0
  9
$DIMCLRE
 70
     0
  9
$DIMCLRT
 70
     0
  9
$DIMTFAC
 40
1.0
  9
$DIMGAP
 40
0.09
  9
$DIMJUST
 70
     0
  9
$DIMSD1
 70
     0
  9
$DIMSD2
 70
     0
  9
$DIMTOLJ
 70
     1
  9
$DIMTZIN
 70
     0
  9
$DIMALTZ
 70
     0
  9
$DIMALTTZ
 70
     0
  9
$DIMFIT
 70
     3
  9
$DIMUPT
 70
     0
  9
$DIMUNIT
 70
     2
  9
$DIMDEC
 70
     4
  9
$DIMTDEC
 70
     4
  9
$DIMALTU
 70
     2
  9
$DIMALTTD
 70
     2
  9
$DIMTXSTY
  7
STANDARD
  9
$DIMAUNIT
 70
     0
  9
$LUNITS
 70
     2
  9
$LUPREC
 70
     4
  9
$SKETCHINC
 40
0.1
  9
$FILLETRAD
 40
0.5
  9
$AUNITS
 70
     0
  9
$AUPREC
 70
     0
  9
$MENU
  1
.
  9
$ELEVATION
 40
0.0
  9
$PELEVATION
 40
0.0
  9
$THICKNESS
 40
0.0
  9
$LIMCHECK
 70
     0
  9
$CHAMFERA
 40
0.0
  9
$CHAMFERB
 40
0.0
  9
$CHAMFERC
 40
0.0
  9
$CHAMFERD
 40
0.0
  9
$SKPOLY
 70
     0
  9
$TDCREATE
 40
2458536.428761157
  9
$TDUPDATE
 40
2458536.428762616
  9
$TDINDWG
 40
0.0000000116
  9
$TDUSRTIMER
 40
0.0000000116
  9
$USRTIMER
 70
     1
  9
$ANGBASE
 50
0.0
  9
$ANGDIR
 70
     0
  9
$PDMODE
 70
     0
  9
$PDSIZE
 40
0.0
  9
$PLINEWID
 40
0.0
  9
$COORDS
 70
     1
  9
$SPLFRAME
 70
     0
  9
$SPLINETYPE
 70
     6
  9
$SPLINESEGS
 70
     8
  9
$ATTDIA
 70
     0
  9
$ATTREQ
 70
     1
  9
$HANDLING
 70
     1
  9
$HANDSEED
  5
506
  9
$SURFTAB1
 70
     6
  9
$SURFTAB2
 70
     6
  9
$SURFTYPE
 70
     6
  9
$SURFU
 70
     6
  9
$SURFV
 70
     6
  9
$UCSNAME
  2

  9
$UCSORG
 10
0.0
 20
0.0
 30
0.0
  9
$UCSXDIR
 10
1.0
 20
0.0
 30
0.0
  9
$UCSYDIR
 10
0.0
 20
1.0
 30
0.0
  9
$PUCSNAME
  2

  9
$PUCSORG
 10
0.0
 20
0.0
 30
0.0
  9
$PUCSXDIR
 10
1.0
 20
0.0
 30
0.0
  9
$PUCSYDIR
 10
0.0
 20
1.0
 30
0.0
  9
$USERI1
 70
     0
  9
$USERI2
 70
     0
  9
$USERI3
 70
     0
  9
$USERI4
 70
     0
  9
$USERI5
 70
     0
  9
$USERR1
 40
0.0
  9
$USERR2
 40
0.0
  9
$USERR3
 40
0.0
  9
$USERR4
 40
0.0
  9
$USERR5
 40
0.0
  9
$WORLDVIEW
 70
     1
  9
$SHADEDGE
 70
     3
  9
$SHADEDIF
 70
    70
  9
$TILEMODE
 70
     1
  9
$MAXACTVP
 70
    64
  9
$PINSBASE
 10
0.0
 20
0.0
 30
0.0
  9
$PLIMCHECK
 70
     0
  9
$PEXTMIN
 10
1.000000000000E+20
 20
1.000000000000E+20
 30
1.000000000000E+20
  9
$PEXTMAX
 10
-1.000000000000E+20
 20
-1.000000000000E+20
 30
-1.000000000000E+20
  9
$PLIMMIN
 10
0.0
 20
0.0
  9
$PLIMMAX
 10
12.0
 20
9.0
  9
$UNITMODE
 70
     0
  9
$VISRETAIN
 70
     1
  9
$PLINEGEN
 70
     0
  9
$PSLTSCALE
 70
     1
  9
$TREEDEPTH
 70
  3020
  9
$PICKSTYLE
 70
     1
  9
$CMLSTYLE
  2
STANDARD
  9
$CMLJUST
 70
     0
  9
$CMLSCALE
 40
1.0
  9
$PROXYGRAPHICS
 70
     1
  9
$MEASUREMENT
 70
     0
  0
ENDSEC
  0
SECTION
  2
CLASSES
  0
CLASS
  1
ACDBDICTIONARYWDFLT
  2
AcDbDictionaryWithDefault
  3
ObjectDBX Classes
 90
        0
280
     0
281
     0
  0
CLASS
  1
VISUALSTYLE
  2
AcDbVisualStyle
  3
ObjectDBX Classes
 90
     4095
280
     0
281
     0
  0
CLASS
  1
MATERIAL
  2
AcDbMaterial
  3
ObjectDBX Classes
 90
     1153
280
     0
281
     0
  0
CLASS
  1
SCALE
  2
AcDbScale
  3
ObjectDBX Classes
 90
     1153
280
     0
281
     0
  0
CLASS
  1
TABLESTYLE
  2
AcDbTableStyle
  3
ObjectDBX Classes
 90
     4095
280
     0
281
     0
  0
CLASS
  1
MLEADERSTYLE
  2
AcDbMLeaderStyle
  3
ACDB_MLEADERSTYLE_CLASS
 90
     4095
280
     0
281
     0
  0
CLASS
  1
SUN
  2
AcDbSun
  3
SCENEOE
 90
     1153
280
     0
281
     0
  0
CLASS
  1
DICTIONARYVAR
  2
AcDbDictionaryVar
  3
ObjectDBX Classes
 90
        0
280
     0
281
     0
  0
CLASS
  1
XRECORD
  2
AcDbXrecord
  3
ObjectDBX Classes
 90
        0
280
     0
281
     0
  0
CLASS
  1
LWPOLYLINE
  2
AcDbPolyline
  3
ObjectDBX Classes
 90
        0
280
     0
281
     1
  0
CLASS
  1
HATCH
  2
AcDbHatch
  3
ObjectDBX Classes
 90
        0
280
     0
281
     1
  0
CLASS
  1
ACDBPLACEHOLDER
  2
AcDbPlaceHolder
  3
ObjectDBX Classes
 90
        0
280
     0
281
     0
  0
CLASS
  1
LAYOUT
  2
AcDbLayout
  3
ObjectDBX Classes
 90
        0
280
     0
281
     0
  0
ENDSEC
  0
SECTION
  2
TABLES
  0
TABLE
  2
VPORT
  5
8
102
{ACAD_XDICTIONARY
360
4FB
102
}
330
0
100
AcDbSymbolTable
 70
     1
  0
VPORT
  5
29
330
8
100
AcDbSymbolTableRecord
100
AcDbViewportTableRecord
  2
*ACTIVE
 70
     0
 10
0.0
 20
0.0
 11
1.0
 21
1.0
 12
-27.41200000599
 22
7.098967408512
 13
0.0
 23
0.0
 14
0.5
 24
0.5
 15
0.5
 25
0.5
 16
0.0
 26
0.0
 36
1.0
 17
0.0
 27
0.0
 37
0.0
 40
176.213485273062
 41
0.66915239651
 42
50.0
 43
0.0
 44
0.0
 50
0.0
 51
0.0
 71
     0
 72
 20000
 73
     1
 74
     3
 75
     0
 76
     0
 77
     0
 78
     0
  0
ENDTAB
  0
TABLE
  2
LTYPE
  5
5
330
0
100
AcDbSymbolTable
 70
    43
  0
LTYPE
  5
14
330
5
100
AcDbSymbolTableRecord
100
AcDbLinetypeTableRecord
  2
BYBLOCK
 70
     0
  3

 72
    65
 73
     0
 40
0.0
  0
LTYPE
  5
15
330
5
100
AcDbSymbolTableRecord
100
AcDbLinetypeTableRecord
  2
BYLAYER
 70
     0
  3

 72
    65
 73
     0
 40
0.0
  0
LTYPE
  5
16
330
5
100
AcDbSymbolTableRecord
100
AcDbLinetypeTableRecord
  2
CONTINUOUS
 70
     0
  3
Solid line
 72
    65
 73
     0
 40
0.0
  0
LTYPE
  5
71
330
5
100
AcDbSymbolTableRecord
100
AcDbLinetypeTableRecord
  2
CENTER_LINE
 70
     0
  3

 72
    65
 73
     5
 40
50.799995422363
 49
15.239999232292
 74
     0
 49
-5.079999996424
 74
     0
 49
10.159999992847
 74
     0
 49
-5.079999996424
 74
     0
 49
15.239999232292
 74
     0
  0
LTYPE
  5
72
330
5
100
AcDbSymbolTableRecord
100
AcDbLinetypeTableRecord
  2
DASH
 70
     0
  3

 72
    65
 73
     3
 40
50.799999237061
 49
12.699999809265
 74
     0
 49
-25.39999961853
 74
     0
 49
12.699999809265
 74
     0
  0
LTYPE
  5
73
330
5
100
AcDbSymbolTableRecord
100
AcDbLinetypeTableRecord
  2
DIAGONAL_50_50
 70
     0
  3

 72
    65
 73
     3
 40
35.92102432251
 49
8.980256080627
 74
     0
 49
-17.960512161255
 74
     0
 49
8.980256080627
 74
     0
  0
LTYPE
  5
74
330
5
100
AcDbSymbolTableRecord
100
AcDbLinetypeTableRecord
  2
ORTHO_50_50
 70
     0
  3

 72
    65
 73
     3
 40
25.39999961853
 49
6.349999904633
 74
     0
 49
-12.699999809265
 74
     0
 49
6.349999904633
 74
     0
  0
LTYPE
  5
75
330
5
100
AcDbSymbolTableRecord
100
AcDbLinetypeTableRecord
  2
ECW-2
 70
     0
  3

 72
    65
 73
     2
 40
6.349999904633
 49
3.174999952316
 74
     0
 49
-3.174999952316
 74
     0
  0
LTYPE
  5
76
330
5
100
AcDbSymbolTableRecord
100
AcDbLinetypeTableRecord
  2
ECW-3
 70
     0
  3

 72
    65
 73
     2
 40
3.174999952316
 49
1.587499976158
 74
     0
 49
-1.587499976158
 74
     0
  0
LTYPE
  5
77
330
5
100
AcDbSymbolTableRecord
100
AcDbLinetypeTableRecord
  2
ECW-4
 70
     0
  3

 72
    65
 73
     4
 40
12.699998855591
 49
7.257142527614
 74
     0
 49
-1.814285631904
 74
     0
 49
1.814285631904
 74
     0
 49
-1.814285631904
 74
     0
  0
LTYPE
  5
78
330
5
100
AcDbSymbolTableRecord
100
AcDbLinetypeTableRecord
  2
ECW-5
 70
     0
  3

 72
    65
 73
     5
 40
25.399997711182
 49
8.466666156054
 74
     0
 49
-3.386666538119
 74
     0
 49
1.69333326906
 74
     0
 49
-3.386666538119
 74
     0
 49
8.466666156054
 74
     0
  0
LTYPE
  5
79
330
5
100
AcDbSymbolTableRecord
100
AcDbLinetypeTableRecord
  2
ECW-6
 70
     0
  3

 72
    65
 73
     2
 40
12.699999809265
 49
9.524999856949
 74
     0
 49
-3.174999952316
 74
     0
  0
LTYPE
  5
7A
330
5
100
AcDbSymbolTableRecord
100
AcDbLinetypeTableRecord
  2
ECW-7
 70
     0
  3

 72
    65
 73
     2
 40
12.699999809265
 49
6.349999904633
 74
     0
 49
-6.349999904633
 74
     0
  0
LTYPE
  5
7B
330
5
100
AcDbSymbolTableRecord
100
AcDbLinetypeTableRecord
  2
ECW-8
 70
     0
  3

 72
    65
 73
     2
 40
12.699999809265
 49
3.174999952316
 74
     0
 49
-9.524999856949
 74
     0
  0
LTYPE
  5
7C
330
5
100
AcDbSymbolTableRecord
100
AcDbLinetypeTableRecord
  2
ECW-9
 70
     0
  3

 72
    65
 73
     3
 40
25.39999961853
 49
9.524999856949
 74
     0
 49
-6.349999904633
 74
     0
 49
9.524999856949
 74
     0
  0
LTYPE
  5
7D
330
5
100
AcDbSymbolTableRecord
100
AcDbLinetypeTableRecord
  2
ECW-10
 70
     0
  3

 72
    65
 73
     4
 40
12.699999809265
 49
6.349999904633
 74
     0
 49
-1.587499976158
 74
     0
 49
3.174999952316
 74
     0
 49
-1.587499976158
 74
     0
  0
LTYPE
  5
7E
330
5
100
AcDbSymbolTableRecord
100
AcDbLinetypeTableRecord
  2
ECW-11
 70
     0
  3

 72
    65
 73
     6
 40
25.39999961853
 49
7.470588434794
 74
     0
 49
-2.988235260371
 74
     0
 49
7.470588434794
 74
     0
 49
-2.988235260371
 74
     0
 49
1.494117630185
 74
     0
 49
-2.988235260371
 74
     0
  0
LTYPE
  5
7F
330
5
100
AcDbSymbolTableRecord
100
AcDbLinetypeTableRecord
  2
ECW-12
 70
     0
  3

 72
    65
 73
     2
 40
12.699999809265
 49
9.524999856949
 74
     0
 49
-3.174999952316
 74
     0
  0
LTYPE
  5
80
330
5
100
AcDbSymbolTableRecord
100
AcDbLinetypeTableRecord
  2
ECW-13
 70
     0
  3

 72
    65
 73
     4
 40
25.39999961853
 49
13.546665655772
 74
     0
 49
-5.079999999404
 74
     0
 49
1.693333206971
 74
     0
 49
-5.079999999404
 74
     0
  0
LTYPE
  5
81
330
5
100
AcDbSymbolTableRecord
100
AcDbLinetypeTableRecord
  2
ECW-14
 70
     0
  3

 72
    65
 73
     2
 40
25.39999961853
 49
19.049999713898
 74
     0
 49
-6.349999904633
 74
     0
  0
LTYPE
  5
82
330
5
100
AcDbSymbolTableRecord
100
AcDbLinetypeTableRecord
  2
ECW-15
 70
     0
  3

 72
    65
 73
     7
 40
25.399997711182
 49
9.524999898672
 74
     0
 49
-3.175000092387
 74
     0
 49
1.587500046194
 74
     0
 49
-3.175000092387
 74
     0
 49
1.587500046194
 74
     0
 49
-3.175000092387
 74
     0
 49
3.175000092387
 74
     0
  0
LTYPE
  5
83
330
5
100
AcDbSymbolTableRecord
100
AcDbLinetypeTableRecord
  2
ECW-16
 70
     0
  3

 72
    65
 73
     2
 40
6.349999904633
 49
1.587499976158
 74
     0
 49
-4.762499928474
 74
     0
  0
LTYPE
  5
84
330
5
100
AcDbSymbolTableRecord
100
AcDbLinetypeTableRecord
  2
ECW-17
 70
     0
  3

 72
    65
 73
     2
 40
12.699999809265
 49
3.174999952316
 74
     0
 49
-9.524999856949
 74
     0
  0
LTYPE
  5
85
330
5
100
AcDbSymbolTableRecord
100
AcDbLinetypeTableRecord
  2
ECW-18
 70
     0
  3

 72
    65
 73
     3
 40
25.39999961853
 49
15.874999761581
 74
     0
 49
-7.937499880791
 74
     0
 49
1.587499976158
 74
     0
  0
LTYPE
  5
86
330
5
100
AcDbSymbolTableRecord
100
AcDbLinetypeTableRecord
  2
CENTER_LINE_DUP_2
 70
     0
  3

 72
    65
 73
     5
 40
50.799995422363
 49
15.239999232292
 74
     0
 49
-5.079999996424
 74
     0
 49
10.159999992847
 74
     0
 49
-5.079999996424
 74
     0
 49
15.239999232292
 74
     0
  0
LTYPE
  5
87
330
5
100
AcDbSymbolTableRecord
100
AcDbLinetypeTableRecord
  2
DASH_DUP_2
 70
     0
  3

 72
    65
 73
     3
 40
50.799999237061
 49
12.699999809265
 74
     0
 49
-25.39999961853
 74
     0
 49
12.699999809265
 74
     0
  0
LTYPE
  5
88
330
5
100
AcDbSymbolTableRecord
100
AcDbLinetypeTableRecord
  2
DIAGONAL_50_50_DUP_2
 70
     0
  3

 72
    65
 73
     3
 40
35.92102432251
 49
8.980256080627
 74
     0
 49
-17.960512161255
 74
     0
 49
8.980256080627
 74
     0
  0
LTYPE
  5
89
330
5
100
AcDbSymbolTableRecord
100
AcDbLinetypeTableRecord
  2
ORTHO_50_50_DUP_2
 70
     0
  3

 72
    65
 73
     3
 40
25.39999961853
 49
6.349999904633
 74
     0
 49
-12.699999809265
 74
     0
 49
6.349999904633
 74
     0
  0
LTYPE
  5
8A
330
5
100
AcDbSymbolTableRecord
100
AcDbLinetypeTableRecord
  2
ECW-2_DUP_2
 70
     0
  3

 72
    65
 73
     2
 40
6.349999904633
 49
3.174999952316
 74
     0
 49
-3.174999952316
 74
     0
  0
LTYPE
  5
8B
330
5
100
AcDbSymbolTableRecord
100
AcDbLinetypeTableRecord
  2
ECW-3_DUP_2
 70
     0
  3

 72
    65
 73
     2
 40
3.174999952316
 49
1.587499976158
 74
     0
 49
-1.587499976158
 74
     0
  0
LTYPE
  5
8C
330
5
100
AcDbSymbolTableRecord
100
AcDbLinetypeTableRecord
  2
ECW-4_DUP_2
 70
     0
  3

 72
    65
 73
     4
 40
12.699998855591
 49
7.257142527614
 74
     0
 49
-1.814285631904
 74
     0
 49
1.814285631904
 74
     0
 49
-1.814285631904
 74
     0
  0
LTYPE
  5
8D
330
5
100
AcDbSymbolTableRecord
100
AcDbLinetypeTableRecord
  2
ECW-5_DUP_2
 70
     0
  3

 72
    65
 73
     5
 40
25.399997711182
 49
8.466666156054
 74
     0
 49
-3.386666538119
 74
     0
 49
1.69333326906
 74
     0
 49
-3.386666538119
 74
     0
 49
8.466666156054
 74
     0
  0
LTYPE
  5
8E
330
5
100
AcDbSymbolTableRecord
100
AcDbLinetypeTableRecord
  2
ECW-6_DUP_2
 70
     0
  3

 72
    65
 73
     2
 40
12.699999809265
 49
9.524999856949
 74
     0
 49
-3.174999952316
 74
     0
  0
LTYPE
  5
8F
330
5
100
AcDbSymbolTableRecord
100
AcDbLinetypeTableRecord
  2
ECW-7_DUP_2
 70
     0
  3

 72
    65
 73
     2
 40
12.699999809265
 49
6.349999904633
 74
     0
 49
-6.349999904633
 74
     0
  0
LTYPE
  5
90
330
5
100
AcDbSymbolTableRecord
100
AcDbLinetypeTableRecord
  2
ECW-8_DUP_2
 70
     0
  3

 72
    65
 73
     2
 40
12.699999809265
 49
3.174999952316
 74
     0
 49
-9.524999856949
 74
     0
  0
LTYPE
  5
91
330
5
100
AcDbSymbolTableRecord
100
AcDbLinetypeTableRecord
  2
ECW-9_DUP_2
 70
     0
  3

 72
    65
 73
     3
 40
25.39999961853
 49
9.524999856949
 74
     0
 49
-6.349999904633
 74
     0
 49
9.524999856949
 74
     0
  0
LTYPE
  5
92
330
5
100
AcDbSymbolTableRecord
100
AcDbLinetypeTableRecord
  2
ECW-10_DUP_2
 70
     0
  3

 72
    65
 73
     4
 40
12.699999809265
 49
6.349999904633
 74
     0
 49
-1.587499976158
 74
     0
 49
3.174999952316
 74
     0
 49
-1.587499976158
 74
     0
  0
LTYPE
  5
93
330
5
100
AcDbSymbolTableRecord
100
AcDbLinetypeTableRecord
  2
ECW-11_DUP_2
 70
     0
  3

 72
    65
 73
     6
 40
25.39999961853
 49
7.470588434794
 74
     0
 49
-2.988235260371
 74
     0
 49
7.470588434794
 74
     0
 49
-2.988235260371
 74
     0
 49
1.494117630185
 74
     0
 49
-2.988235260371
 74
     0
  0
LTYPE
  5
94
330
5
100
AcDbSymbolTableRecord
100
AcDbLinetypeTableRecord
  2
ECW-12_DUP_2
 70
     0
  3

 72
    65
 73
     2
 40
12.699999809265
 49
9.524999856949
 74
     0
 49
-3.174999952316
 74
     0
  0
LTYPE
  5
95
330
5
100
AcDbSymbolTableRecord
100
AcDbLinetypeTableRecord
  2
ECW-13_DUP_2
 70
     0
  3

 72
    65
 73
     4
 40
25.39999961853
 49
13.546665655772
 74
     0
 49
-5.079999999404
 74
     0
 49
1.693333206971
 74
     0
 49
-5.079999999404
 74
     0
  0
LTYPE
  5
96
330
5
100
AcDbSymbolTableRecord
100
AcDbLinetypeTableRecord
  2
ECW-14_DUP_2
 70
     0
  3

 72
    65
 73
     2
 40
25.39999961853
 49
19.049999713898
 74
     0
 49
-6.349999904633
 74
     0
  0
LTYPE
  5
97
330
5
100
AcDbSymbolTableRecord
100
AcDbLinetypeTableRecord
  2
ECW-15_DUP_2
 70
     0
  3

 72
    65
 73
     7
 40
25.399997711182
 49
9.524999898672
 74
     0
 49
-3.175000092387
 74
     0
 49
1.587500046194
 74
     0
 49
-3.175000092387
 74
     0
 49
1.587500046194
 74
     0
 49
-3.175000092387
 74
     0
 49
3.175000092387
 74
     0
  0
LTYPE
  5
98
330
5
100
AcDbSymbolTableRecord
100
AcDbLinetypeTableRecord
  2
ECW-16_DUP_2
 70
     0
  3

 72
    65
 73
     2
 40
6.349999904633
 49
1.587499976158
 74
     0
 49
-4.762499928474
 74
     0
  0
LTYPE
  5
99
330
5
100
AcDbSymbolTableRecord
100
AcDbLinetypeTableRecord
  2
ECW-17_DUP_2
 70
     0
  3

 72
    65
 73
     2
 40
12.699999809265
 49
3.174999952316
 74
     0
 49
-9.524999856949
 74
     0
  0
LTYPE
  5
9A
330
5
100
AcDbSymbolTableRecord
100
AcDbLinetypeTableRecord
  2
ECW-18_DUP_2
 70
     0
  3

 72
    65
 73
     3
 40
25.39999961853
 49
15.874999761581
 74
     0
 49
-7.937499880791
 74
     0
 49
1.587499976158
 74
     0
  0
ENDTAB
  0
TABLE
  2
LAYER
  5
2
330
0
100
AcDbSymbolTable
 70
     5
  0
LAYER
  5
10
330
2
100
AcDbSymbolTableRecord
100
AcDbLayerTableRecord
  2
0
 70
     0
 62
     7
  6
CONTINUOUS
  0
LAYER
  5
6E
330
2
100
AcDbSymbolTableRecord
100
AcDbLayerTableRecord
  2
MERGE
 70
     0
 62
     7
  6
CONTINUOUS
  0
LAYER
  5
6F
330
2
100
AcDbSymbolTableRecord
100
AcDbLayerTableRecord
  2
STANDARD
 70
     0
 62
     7
  6
CONTINUOUS
  0
LAYER
  5
70
330
2
100
AcDbSymbolTableRecord
100
AcDbLayerTableRecord
  2
BEMASSUNG
 70
     0
 62
     7
  6
CONTINUOUS
  0
LAYER
  5
473
330
2
100
AcDbSymbolTableRecord
100
AcDbLayerTableRecord
  2
DEFPOINTS
 70
     0
 62
     7
  6
CONTINUOUS
  0
ENDTAB
  0
TABLE
  2
STYLE
  5
3
330
0
100
AcDbSymbolTable
 70
     5
  0
STYLE
  5
11
330
3
100
AcDbSymbolTableRecord
100
AcDbTextStyleTableRecord
  2
STANDARD
 70
     0
 40
0.0
 41
1.0
 50
0.0
 71
     0
 42
0.2
  3
txt
  4

  0
STYLE
  5
9B
330
3
100
AcDbSymbolTableRecord
100
AcDbTextStyleTableRecord
  2
ARIAL
 70
     0
 40
0.0
 41
1.0
 50
0.0
 71
     0
 42
0.2
  3
arial.ttf
  4

1001
ACAD
1000
Arial
1071
       34
  0
STYLE
  5
9C
330
3
100
AcDbSymbolTableRecord
100
AcDbTextStyleTableRecord
  2
SIMPLEX_DUP__1
 70
     0
 40
0.0
 41
1.0
 50
0.0
 71
     0
 42
0.2
  3
simplex.shx
  4

  0
STYLE
  5
9D
330
3
100
AcDbSymbolTableRecord
100
AcDbTextStyleTableRecord
  2
TXT
 70
     0
 40
0.0
 41
1.0
 50
0.0
 71
     0
 42
0.2
  3
txt.shx
  4

  0
STYLE
  5
9E
330
3
100
AcDbSymbolTableRecord
100
AcDbTextStyleTableRecord
  2
SIMPLEX_DUP__2
 70
     0
 40
0.0
 41
1.0
 50
0.0
 71
     0
 42
0.2
  3
simplex.shx
  4

  0
ENDTAB
  0
TABLE
  2
VIEW
  5
6
330
0
100
AcDbSymbolTable
 70
     0
  0
ENDTAB
  0
TABLE
  2
UCS
  5
7
330
0
100
AcDbSymbolTable
 70
     0
  0
ENDTAB
  0
TABLE
  2
APPID
  5
9
330
0
100
AcDbSymbolTable
 70
     2
  0
APPID
  5
12
330
9
100
AcDbSymbolTableRecord
100
AcDbRegAppTableRecord
  2
ACAD
 70
     0
  0
APPID
  5
505
330
9
100
AcDbSymbolTableRecord
100
AcDbRegAppTableRecord
  2
ACAD_MLEADERVER
 70
     0
  0
ENDTAB
  0
TABLE
  2
DIMSTYLE
  5
A
330
0
100
AcDbSymbolTable
 70
     1
  0
DIMSTYLE
105
27
102
{ACAD_REACTORS
330
472
330
47D
330
487
330
495
330
49F
330
4A9
330
4B7
102
}
330
A
100
AcDbSymbolTableRecord
100
AcDbDimStyleTableRecord
  2
STANDARD
 70
     0
  3

  4

  5

  6

  7

 40
1.0
 41
0.18
 42
0.0625
 43
0.38
 44
0.18
 45
0.0
 46
0.0
 47
0.0
 48
0.0
140
0.18
141
0.09
142
0.0
143
25.4
144
1.0
145
0.0
146
1.0
147
0.09
 71
     0
 72
     0
 73
     1
 74
     1
 75
     0
 76
     0
 77
     0
 78
     0
170
     0
171
     2
172
     0
173
     0
174
     0
175
     0
176
     0
177
     0
178
     0
270
     2
271
     4
272
     4
273
     2
274
     2
340
11
275
     0
280
     0
281
     0
282
     0
283
     1
284
     0
285
     0
286
     0
287
     3
288
     0
  0
ENDTAB
  0
TABLE
  2
BLOCK_RECORD
  5
1
330
0
100
AcDbSymbolTable
 70
   235
  0
BLOCK_RECORD
  5
1F
330
1
100
AcDbSymbolTableRecord
100
AcDbBlockTableRecord
  2
*MODEL_SPACE
  0
BLOCK_RECORD
  5
1B
330
1
100
AcDbSymbolTableRecord
100
AcDbBlockTableRecord
  2
*PAPER_SPACE
  0
BLOCK_RECORD
  5
9F
330
1
100
AcDbSymbolTableRecord
100
AcDbBlockTableRecord
  2
DBLAYERS
  0
BLOCK_RECORD
  5
A2
330
1
100
AcDbSymbolTableRecord
100
AcDbBlockTableRecord
  2
BOARD_10
  0
BLOCK_RECORD
  5
A5
330
1
100
AcDbSymbolTableRecord
100
AcDbBlockTableRecord
  2
DRAWING_1
  0
BLOCK_RECORD
  5
A8
330
1
100
AcDbSymbolTableRecord
100
AcDbBlockTableRecord
  2
DRAWING_2
  0
BLOCK_RECORD
  5
AB
330
1
100
AcDbSymbolTableRecord
100
AcDbBlockTableRecord
  2
DRAWING_3
  0
BLOCK_RECORD
  5
AE
330
1
100
AcDbSymbolTableRecord
100
AcDbBlockTableRecord
  2
DRAWING_4
  0
BLOCK_RECORD
  5
B1
330
1
100
AcDbSymbolTableRecord
100
AcDbBlockTableRecord
  2
DRAWING_5
  0
BLOCK_RECORD
  5
B4
330
1
100
AcDbSymbolTableRecord
100
AcDbBlockTableRecord
  2
DRAWING_6
  0
BLOCK_RECORD
  5
B7
330
1
100
AcDbSymbolTableRecord
100
AcDbBlockTableRecord
  2
DRAWING_7
  0
BLOCK_RECORD
  5
BA
330
1
100
AcDbSymbolTableRecord
100
AcDbBlockTableRecord
  2
DRAWING_8
  0
BLOCK_RECORD
  5
BD
330
1
100
AcDbSymbolTableRecord
100
AcDbBlockTableRecord
  2
DRAWING_9
  0
BLOCK_RECORD
  5
C0
330
1
100
AcDbSymbolTableRecord
100
AcDbBlockTableRecord
  2
DRAWING_11
  0
BLOCK_RECORD
  5
C3
330
1
100
AcDbSymbolTableRecord
100
AcDbBlockTableRecord
  2
DRAWING_12
  0
BLOCK_RECORD
  5
C6
330
1
100
AcDbSymbolTableRecord
100
AcDbBlockTableRecord
  2
DRAWING_13
  0
BLOCK_RECORD
  5
C9
330
1
100
AcDbSymbolTableRecord
100
AcDbBlockTableRecord
  2
DRAWING_14
  0
BLOCK_RECORD
  5
CC
330
1
100
AcDbSymbolTableRecord
100
AcDbBlockTableRecord
  2
DRAWING_15
  0
BLOCK_RECORD
  5
CF
330
1
100
AcDbSymbolTableRecord
100
AcDbBlockTableRecord
  2
DRAWING_42
  0
BLOCK_RECORD
  5
D2
330
1
100
AcDbSymbolTableRecord
100
AcDbBlockTableRecord
  2
KEEPOUT_16
  0
BLOCK_RECORD
  5
D5
330
1
100
AcDbSymbolTableRecord
100
AcDbBlockTableRecord
  2
KEEPOUT_17
  0
BLOCK_RECORD
  5
D8
330
1
100
AcDbSymbolTableRecord
100
AcDbBlockTableRecord
  2
KEEPOUT_18
  0
BLOCK_RECORD
  5
DB
330
1
100
AcDbSymbolTableRecord
100
AcDbBlockTableRecord
  2
KEEPOUT_19
  0
BLOCK_RECORD
  5
DE
330
1
100
AcDbSymbolTableRecord
100
AcDbBlockTableRecord
  2
PART_TOP_0
  0
BLOCK_RECORD
  5
E1
330
1
100
AcDbSymbolTableRecord
100
AcDbBlockTableRecord
  2
PART_TOP_1
  0
BLOCK_RECORD
  5
E6
330
1
100
AcDbSymbolTableRecord
100
AcDbBlockTableRecord
  2
PART_TOP_2
  0
BLOCK_RECORD
  5
EB
330
1
100
AcDbSymbolTableRecord
100
AcDbBlockTableRecord
  2
PART_TOP_3
  0
BLOCK_RECORD
  5
F0
330
1
100
AcDbSymbolTableRecord
100
AcDbBlockTableRecord
  2
PART_TOP_4
  0
BLOCK_RECORD
  5
F5
330
1
100
AcDbSymbolTableRecord
100
AcDbBlockTableRecord
  2
PART_TOP_5
  0
BLOCK_RECORD
  5
FA
330
1
100
AcDbSymbolTableRecord
100
AcDbBlockTableRecord
  2
PART_TOP_6
  0
BLOCK_RECORD
  5
FF
330
1
100
AcDbSymbolTableRecord
100
AcDbBlockTableRecord
  2
PART_TOP_7
  0
BLOCK_RECORD
  5
104
330
1
100
AcDbSymbolTableRecord
100
AcDbBlockTableRecord
  2
PART_TOP_8
  0
BLOCK_RECORD
  5
109
330
1
100
AcDbSymbolTableRecord
100
AcDbBlockTableRecord
  2
PART_TOP_9
  0
BLOCK_RECORD
  5
10E
330
1
100
AcDbSymbolTableRecord
100
AcDbBlockTableRecord
  2
PART_TOP_10
  0
BLOCK_RECORD
  5
113
330
1
100
AcDbSymbolTableRecord
100
AcDbBlockTableRecord
  2
PART_TOP_11
  0
BLOCK_RECORD
  5
118
330
1
100
AcDbSymbolTableRecord
100
AcDbBlockTableRecord
  2
PART_TOP_12
  0
BLOCK_RECORD
  5
11D
330
1
100
AcDbSymbolTableRecord
100
AcDbBlockTableRecord
  2
PART_TOP_13
  0
BLOCK_RECORD
  5
122
330
1
100
AcDbSymbolTableRecord
100
AcDbBlockTableRecord
  2
PART_TOP_14
  0
BLOCK_RECORD
  5
127
330
1
100
AcDbSymbolTableRecord
100
AcDbBlockTableRecord
  2
PART_TOP_15
  0
BLOCK_RECORD
  5
12C
330
1
100
AcDbSymbolTableRecord
100
AcDbBlockTableRecord
  2
PART_TOP_16
  0
BLOCK_RECORD
  5
131
330
1
100
AcDbSymbolTableRecord
100
AcDbBlockTableRecord
  2
PART_TOP_17
  0
BLOCK_RECORD
  5
136
330
1
100
AcDbSymbolTableRecord
100
AcDbBlockTableRecord
  2
PART_TOP_18
  0
BLOCK_RECORD
  5
13B
330
1
100
AcDbSymbolTableRecord
100
AcDbBlockTableRecord
  2
PART_TOP_19
  0
BLOCK_RECORD
  5
140
330
1
100
AcDbSymbolTableRecord
100
AcDbBlockTableRecord
  2
PART_TOP_20
  0
BLOCK_RECORD
  5
145
330
1
100
AcDbSymbolTableRecord
100
AcDbBlockTableRecord
  2
PART_TOP_21
  0
BLOCK_RECORD
  5
14A
330
1
100
AcDbSymbolTableRecord
100
AcDbBlockTableRecord
  2
PART_TOP_22
  0
BLOCK_RECORD
  5
14F
330
1
100
AcDbSymbolTableRecord
100
AcDbBlockTableRecord
  2
PART_TOP_23
  0
BLOCK_RECORD
  5
154
330
1
100
AcDbSymbolTableRecord
100
AcDbBlockTableRecord
  2
PART_TOP_24
  0
BLOCK_RECORD
  5
159
330
1
100
AcDbSymbolTableRecord
100
AcDbBlockTableRecord
  2
PART_TOP_25
  0
BLOCK_RECORD
  5
15E
330
1
100
AcDbSymbolTableRecord
100
AcDbBlockTableRecord
  2
PART_TOP_26
  0
BLOCK_RECORD
  5
163
330
1
100
AcDbSymbolTableRecord
100
AcDbBlockTableRecord
  2
PART_TOP_27
  0
BLOCK_RECORD
  5
168
330
1
100
AcDbSymbolTableRecord
100
AcDbBlockTableRecord
  2
PART_TOP_28
  0
BLOCK_RECORD
  5
16D
330
1
100
AcDbSymbolTableRecord
100
AcDbBlockTableRecord
  2
PART_TOP_29
  0
BLOCK_RECORD
  5
172
330
1
100
AcDbSymbolTableRecord
100
AcDbBlockTableRecord
  2
PART_TOP_30
  0
BLOCK_RECORD
  5
177
330
1
100
AcDbSymbolTableRecord
100
AcDbBlockTableRecord
  2
PART_TOP_31
  0
BLOCK_RECORD
  5
17C
330
1
100
AcDbSymbolTableRecord
100
AcDbBlockTableRecord
  2
PART_TOP_32
  0
BLOCK_RECORD
  5
181
330
1
100
AcDbSymbolTableRecord
100
AcDbBlockTableRecord
  2
PART_TOP_33
  0
BLOCK_RECORD
  5
186
330
1
100
AcDbSymbolTableRecord
100
AcDbBlockTableRecord
  2
PART_TOP_34
  0
BLOCK_RECORD
  5
18B
330
1
100
AcDbSymbolTableRecord
100
AcDbBlockTableRecord
  2
PART_TOP_35
  0
BLOCK_RECORD
  5
190
330
1
100
AcDbSymbolTableRecord
100
AcDbBlockTableRecord
  2
PART_TOP_36
  0
BLOCK_RECORD
  5
195
330
1
100
AcDbSymbolTableRecord
100
AcDbBlockTableRecord
  2
PART_TOP_37
  0
BLOCK_RECORD
  5
19A
330
1
100
AcDbSymbolTableRecord
100
AcDbBlockTableRecord
  2
PART_TOP_38
  0
BLOCK_RECORD
  5
19F
330
1
100
AcDbSymbolTableRecord
100
AcDbBlockTableRecord
  2
PART_TOP_39
  0
BLOCK_RECORD
  5
1A4
330
1
100
AcDbSymbolTableRecord
100
AcDbBlockTableRecord
  2
PART_TOP_40
  0
BLOCK_RECORD
  5
1A9
330
1
100
AcDbSymbolTableRecord
100
AcDbBlockTableRecord
  2
PART_TOP_41
  0
BLOCK_RECORD
  5
1AE
330
1
100
AcDbSymbolTableRecord
100
AcDbBlockTableRecord
  2
PART_TOP_42
  0
BLOCK_RECORD
  5
1B3
330
1
100
AcDbSymbolTableRecord
100
AcDbBlockTableRecord
  2
PART_TOP_43
  0
BLOCK_RECORD
  5
1B8
330
1
100
AcDbSymbolTableRecord
100
AcDbBlockTableRecord
  2
PART_TOP_44
  0
BLOCK_RECORD
  5
1BD
330
1
100
AcDbSymbolTableRecord
100
AcDbBlockTableRecord
  2
PART_TOP_45
  0
BLOCK_RECORD
  5
1C2
330
1
100
AcDbSymbolTableRecord
100
AcDbBlockTableRecord
  2
PART_TOP_46
  0
BLOCK_RECORD
  5
1C7
330
1
100
AcDbSymbolTableRecord
100
AcDbBlockTableRecord
  2
PART_TOP_47
  0
BLOCK_RECORD
  5
1CC
330
1
100
AcDbSymbolTableRecord
100
AcDbBlockTableRecord
  2
PART_TOP_48
  0
BLOCK_RECORD
  5
1D1
330
1
100
AcDbSymbolTableRecord
100
AcDbBlockTableRecord
  2
PART_TOP_49
  0
BLOCK_RECORD
  5
1D6
330
1
100
AcDbSymbolTableRecord
100
AcDbBlockTableRecord
  2
PART_TOP_50
  0
BLOCK_RECORD
  5
1DB
330
1
100
AcDbSymbolTableRecord
100
AcDbBlockTableRecord
  2
PART_TOP_51
  0
BLOCK_RECORD
  5
1E0
330
1
100
AcDbSymbolTableRecord
100
AcDbBlockTableRecord
  2
PART_TOP_52
  0
BLOCK_RECORD
  5
1E5
330
1
100
AcDbSymbolTableRecord
100
AcDbBlockTableRecord
  2
PART_TOP_53
  0
BLOCK_RECORD
  5
1EA
330
1
100
AcDbSymbolTableRecord
100
AcDbBlockTableRecord
  2
PART_TOP_54
  0
BLOCK_RECORD
  5
1EF
330
1
100
AcDbSymbolTableRecord
100
AcDbBlockTableRecord
  2
PART_TOP_55
  0
BLOCK_RECORD
  5
1F4
330
1
100
AcDbSymbolTableRecord
100
AcDbBlockTableRecord
  2
PART_TOP_56
  0
BLOCK_RECORD
  5
1F9
330
1
100
AcDbSymbolTableRecord
100
AcDbBlockTableRecord
  2
SYM_TOP_13
  0
BLOCK_RECORD
  5
1FF
330
1
100
AcDbSymbolTableRecord
100
AcDbBlockTableRecord
  2
PKG_0
  0
BLOCK_RECORD
  5
202
330
1
100
AcDbSymbolTableRecord
100
AcDbBlockTableRecord
  2
SYM_TOP_14
  0
BLOCK_RECORD
  5
207
330
1
100
AcDbSymbolTableRecord
100
AcDbBlockTableRecord
  2
PKG_1
  0
BLOCK_RECORD
  5
20A
330
1
100
AcDbSymbolTableRecord
100
AcDbBlockTableRecord
  2
SYM_TOP_15
  0
BLOCK_RECORD
  5
210
330
1
100
AcDbSymbolTableRecord
100
AcDbBlockTableRecord
  2
PKG_2
  0
BLOCK_RECORD
  5
213
330
1
100
AcDbSymbolTableRecord
100
AcDbBlockTableRecord
  2
SYM_TOP_16
  0
BLOCK_RECORD
  5
219
330
1
100
AcDbSymbolTableRecord
100
AcDbBlockTableRecord
  2
PKG_3
  0
BLOCK_RECORD
  5
21C
330
1
100
AcDbSymbolTableRecord
100
AcDbBlockTableRecord
  2
SYM_TOP_18
  0
BLOCK_RECORD
  5
222
330
1
100
AcDbSymbolTableRecord
100
AcDbBlockTableRecord
  2
PKG_4
  0
BLOCK_RECORD
  5
225
330
1
100
AcDbSymbolTableRecord
100
AcDbBlockTableRecord
  2
SYM_TOP_19
  0
BLOCK_RECORD
  5
22B
330
1
100
AcDbSymbolTableRecord
100
AcDbBlockTableRecord
  2
PKG_5
  0
BLOCK_RECORD
  5
22E
330
1
100
AcDbSymbolTableRecord
100
AcDbBlockTableRecord
  2
PKG_6
  0
BLOCK_RECORD
  5
231
330
1
100
AcDbSymbolTableRecord
100
AcDbBlockTableRecord
  2
SYM_TOP_20
  0
BLOCK_RECORD
  5
239
330
1
100
AcDbSymbolTableRecord
100
AcDbBlockTableRecord
  2
PKG_8
  0
BLOCK_RECORD
  5
23C
330
1
100
AcDbSymbolTableRecord
100
AcDbBlockTableRecord
  2
SYM_TOP_21
  0
BLOCK_RECORD
  5
248
330
1
100
AcDbSymbolTableRecord
100
AcDbBlockTableRecord
  2
PKG_9
  0
BLOCK_RECORD
  5
24B
330
1
100
AcDbSymbolTableRecord
100
AcDbBlockTableRecord
  2
SYM_TOP_22
  0
BLOCK_RECORD
  5
257
330
1
100
AcDbSymbolTableRecord
100
AcDbBlockTableRecord
  2
PKG_10
  0
BLOCK_RECORD
  5
25A
330
1
100
AcDbSymbolTableRecord
100
AcDbBlockTableRecord
  2
SYM_TOP_23
  0
BLOCK_RECORD
  5
260
330
1
100
AcDbSymbolTableRecord
100
AcDbBlockTableRecord
  2
PKG_11
  0
BLOCK_RECORD
  5
263
330
1
100
AcDbSymbolTableRecord
100
AcDbBlockTableRecord
  2
SYM_TOP_24
  0
BLOCK_RECORD
  5
269
330
1
100
AcDbSymbolTableRecord
100
AcDbBlockTableRecord
  2
PKG_12
  0
BLOCK_RECORD
  5
26C
330
1
100
AcDbSymbolTableRecord
100
AcDbBlockTableRecord
  2
SYM_TOP_26
  0
BLOCK_RECORD
  5
271
330
1
100
AcDbSymbolTableRecord
100
AcDbBlockTableRecord
  2
PKG_13
  0
BLOCK_RECORD
  5
274
330
1
100
AcDbSymbolTableRecord
100
AcDbBlockTableRecord
  2
SYM_TOP_27
  0
BLOCK_RECORD
  5
27B
330
1
100
AcDbSymbolTableRecord
100
AcDbBlockTableRecord
  2
PKG_14
  0
BLOCK_RECORD
  5
27E
330
1
100
AcDbSymbolTableRecord
100
AcDbBlockTableRecord
  2
SYM_TOP_28
  0
BLOCK_RECORD
  5
284
330
1
100
AcDbSymbolTableRecord
100
AcDbBlockTableRecord
  2
PKG_15
  0
BLOCK_RECORD
  5
287
330
1
100
AcDbSymbolTableRecord
100
AcDbBlockTableRecord
  2
SYM_TOP_29
  0
BLOCK_RECORD
  5
290
330
1
100
AcDbSymbolTableRecord
100
AcDbBlockTableRecord
  2
PKG_16
  0
BLOCK_RECORD
  5
293
330
1
100
AcDbSymbolTableRecord
100
AcDbBlockTableRecord
  2
PKG_17
  0
BLOCK_RECORD
  5
296
330
1
100
AcDbSymbolTableRecord
100
AcDbBlockTableRecord
  2
PKG_7
  0
BLOCK_RECORD
  5
299
330
1
100
AcDbSymbolTableRecord
100
AcDbBlockTableRecord
  2
PKG_18
  0
BLOCK_RECORD
  5
29C
330
1
100
AcDbSymbolTableRecord
100
AcDbBlockTableRecord
  2
SYM_TOP_30
  0
BLOCK_RECORD
  5
2A2
330
1
100
AcDbSymbolTableRecord
100
AcDbBlockTableRecord
  2
PKG_19
  0
BLOCK_RECORD
  5
2A5
330
1
100
AcDbSymbolTableRecord
100
AcDbBlockTableRecord
  2
SYM_TOP_31
  0
BLOCK_RECORD
  5
2AC
330
1
100
AcDbSymbolTableRecord
100
AcDbBlockTableRecord
  2
PKG_20
  0
BLOCK_RECORD
  5
2AF
330
1
100
AcDbSymbolTableRecord
100
AcDbBlockTableRecord
  2
SYM_TOP_32
  0
BLOCK_RECORD
  5
2B6
330
1
100
AcDbSymbolTableRecord
100
AcDbBlockTableRecord
  2
PKG_21
  0
BLOCK_RECORD
  5
2B9
330
1
100
AcDbSymbolTableRecord
100
AcDbBlockTableRecord
  2
PKG_22
  0
BLOCK_RECORD
  5
2BC
330
1
100
AcDbSymbolTableRecord
100
AcDbBlockTableRecord
  2
SYM_TOP_33
  0
BLOCK_RECORD
  5
2C2
330
1
100
AcDbSymbolTableRecord
100
AcDbBlockTableRecord
  2
PKG_23
  0
BLOCK_RECORD
  5
2C5
330
1
100
AcDbSymbolTableRecord
100
AcDbBlockTableRecord
  2
PKG_24
  0
BLOCK_RECORD
  5
2C8
330
1
100
AcDbSymbolTableRecord
100
AcDbBlockTableRecord
  2
PART_BODY_TOP_20
  0
BLOCK_RECORD
  5
2CB
330
1
100
AcDbSymbolTableRecord
100
AcDbBlockTableRecord
  2
STK_TOP_28
  0
BLOCK_RECORD
  5
2CE
330
1
100
AcDbSymbolTableRecord
100
AcDbBlockTableRecord
  2
STK_TOP_29
  0
BLOCK_RECORD
  5
2D1
330
1
100
AcDbSymbolTableRecord
100
AcDbBlockTableRecord
  2
PART_BODY_TOP_21
  0
BLOCK_RECORD
  5
2D4
330
1
100
AcDbSymbolTableRecord
100
AcDbBlockTableRecord
  2
STK_TOP_32
  0
BLOCK_RECORD
  5
2D7
330
1
100
AcDbSymbolTableRecord
100
AcDbBlockTableRecord
  2
PART_BODY_TOP_22
  0
BLOCK_RECORD
  5
2DA
330
1
100
AcDbSymbolTableRecord
100
AcDbBlockTableRecord
  2
STK_TOP_37
  0
BLOCK_RECORD
  5
2DD
330
1
100
AcDbSymbolTableRecord
100
AcDbBlockTableRecord
  2
PART_BODY_TOP_23
  0
BLOCK_RECORD
  5
2E0
330
1
100
AcDbSymbolTableRecord
100
AcDbBlockTableRecord
  2
STK_TOP_38
  0
BLOCK_RECORD
  5
2E3
330
1
100
AcDbSymbolTableRecord
100
AcDbBlockTableRecord
  2
SYM_TOP_17
  0
BLOCK_RECORD
  5
2E9
330
1
100
AcDbSymbolTableRecord
100
AcDbBlockTableRecord
  2
PART_BODY_TOP_25
  0
BLOCK_RECORD
  5
2EC
330
1
100
AcDbSymbolTableRecord
100
AcDbBlockTableRecord
  2
STK_TOP_40
  0
BLOCK_RECORD
  5
2EF
330
1
100
AcDbSymbolTableRecord
100
AcDbBlockTableRecord
  2
PART_BODY_TOP_26
  0
BLOCK_RECORD
  5
2F2
330
1
100
AcDbSymbolTableRecord
100
AcDbBlockTableRecord
  2
PART_BODY_TOP_27
  0
BLOCK_RECORD
  5
2F5
330
1
100
AcDbSymbolTableRecord
100
AcDbBlockTableRecord
  2
STK_TOP_41
  0
BLOCK_RECORD
  5
2F8
330
1
100
AcDbSymbolTableRecord
100
AcDbBlockTableRecord
  2
STK_TOP_42
  0
BLOCK_RECORD
  5
2FB
330
1
100
AcDbSymbolTableRecord
100
AcDbBlockTableRecord
  2
PART_BODY_TOP_28
  0
BLOCK_RECORD
  5
2FE
330
1
100
AcDbSymbolTableRecord
100
AcDbBlockTableRecord
  2
STK_TOP_43
  0
BLOCK_RECORD
  5
301
330
1
100
AcDbSymbolTableRecord
100
AcDbBlockTableRecord
  2
PART_BODY_TOP_29
  0
BLOCK_RECORD
  5
304
330
1
100
AcDbSymbolTableRecord
100
AcDbBlockTableRecord
  2
STK_TOP_44
  0
BLOCK_RECORD
  5
307
330
1
100
AcDbSymbolTableRecord
100
AcDbBlockTableRecord
  2
STK_TOP_45
  0
BLOCK_RECORD
  5
30A
330
1
100
AcDbSymbolTableRecord
100
AcDbBlockTableRecord
  2
PART_BODY_TOP_30
  0
BLOCK_RECORD
  5
30D
330
1
100
AcDbSymbolTableRecord
100
AcDbBlockTableRecord
  2
STK_TOP_47
  0
BLOCK_RECORD
  5
310
330
1
100
AcDbSymbolTableRecord
100
AcDbBlockTableRecord
  2
STK_TOP_46
  0
BLOCK_RECORD
  5
313
330
1
100
AcDbSymbolTableRecord
100
AcDbBlockTableRecord
  2
PART_BODY_TOP_31
  0
BLOCK_RECORD
  5
316
330
1
100
AcDbSymbolTableRecord
100
AcDbBlockTableRecord
  2
STK_TOP_48
  0
BLOCK_RECORD
  5
319
330
1
100
AcDbSymbolTableRecord
100
AcDbBlockTableRecord
  2
SYM_TOP_25
  0
BLOCK_RECORD
  5
31F
330
1
100
AcDbSymbolTableRecord
100
AcDbBlockTableRecord
  2
PART_BODY_TOP_33
  0
BLOCK_RECORD
  5
322
330
1
100
AcDbSymbolTableRecord
100
AcDbBlockTableRecord
  2
STK_TOP_50
  0
BLOCK_RECORD
  5
325
330
1
100
AcDbSymbolTableRecord
100
AcDbBlockTableRecord
  2
PART_BODY_TOP_34
  0
BLOCK_RECORD
  5
328
330
1
100
AcDbSymbolTableRecord
100
AcDbBlockTableRecord
  2
STK_TOP_51
  0
BLOCK_RECORD
  5
32B
330
1
100
AcDbSymbolTableRecord
100
AcDbBlockTableRecord
  2
PART_BODY_TOP_35
  0
BLOCK_RECORD
  5
32E
330
1
100
AcDbSymbolTableRecord
100
AcDbBlockTableRecord
  2
STK_TOP_25
  0
BLOCK_RECORD
  5
331
330
1
100
AcDbSymbolTableRecord
100
AcDbBlockTableRecord
  2
STK_TOP_24
  0
BLOCK_RECORD
  5
334
330
1
100
AcDbSymbolTableRecord
100
AcDbBlockTableRecord
  2
PART_BODY_TOP_36
  0
BLOCK_RECORD
  5
337
330
1
100
AcDbSymbolTableRecord
100
AcDbBlockTableRecord
  2
STK_TOP_52
  0
BLOCK_RECORD
  5
33A
330
1
100
AcDbSymbolTableRecord
100
AcDbBlockTableRecord
  2
PART_BODY_TOP_37
  0
BLOCK_RECORD
  5
33D
330
1
100
AcDbSymbolTableRecord
100
AcDbBlockTableRecord
  2
STK_TOP_53
  0
BLOCK_RECORD
  5
340
330
1
100
AcDbSymbolTableRecord
100
AcDbBlockTableRecord
  2
PART_BODY_TOP_38
  0
BLOCK_RECORD
  5
343
330
1
100
AcDbSymbolTableRecord
100
AcDbBlockTableRecord
  2
STK_TOP_54
  0
BLOCK_RECORD
  5
346
330
1
100
AcDbSymbolTableRecord
100
AcDbBlockTableRecord
  2
PART_BODY_TOP_39
  0
BLOCK_RECORD
  5
349
330
1
100
AcDbSymbolTableRecord
100
AcDbBlockTableRecord
  2
STK_TOP_55
  0
BLOCK_RECORD
  5
34C
330
1
100
AcDbSymbolTableRecord
100
AcDbBlockTableRecord
  2
PART_BODY_TOP_40
  0
BLOCK_RECORD
  5
34F
330
1
100
AcDbSymbolTableRecord
100
AcDbBlockTableRecord
  2
STK_TOP_57
  0
BLOCK_RECORD
  5
352
330
1
100
AcDbSymbolTableRecord
100
AcDbBlockTableRecord
  2
STK_TOP_58
  0
BLOCK_RECORD
  5
355
330
1
100
AcDbSymbolTableRecord
100
AcDbBlockTableRecord
  2
SYM_TOP_34
  0
BLOCK_RECORD
  5
35B
330
1
100
AcDbSymbolTableRecord
100
AcDbBlockTableRecord
  2
PART_BODY_TOP_24
  0
BLOCK_RECORD
  5
35E
330
1
100
AcDbSymbolTableRecord
100
AcDbBlockTableRecord
  2
STK_TOP_39
  0
BLOCK_RECORD
  5
361
330
1
100
AcDbSymbolTableRecord
100
AcDbBlockTableRecord
  2
PART_BODY_TOP_32
  0
BLOCK_RECORD
  5
364
330
1
100
AcDbSymbolTableRecord
100
AcDbBlockTableRecord
  2
STK_TOP_49
  0
BLOCK_RECORD
  5
367
330
1
100
AcDbSymbolTableRecord
100
AcDbBlockTableRecord
  2
PART_BODY_TOP_41
  0
BLOCK_RECORD
  5
36A
330
1
100
AcDbSymbolTableRecord
100
AcDbBlockTableRecord
  2
STK_TOP_59
  0
BLOCK_RECORD
  5
36D
330
1
100
AcDbSymbolTableRecord
100
AcDbBlockTableRecord
  2
STK_TOP_60
  0
BLOCK_RECORD
  5
370
330
1
100
AcDbSymbolTableRecord
100
AcDbBlockTableRecord
  2
PCB_PARAMS
  0
BLOCK_RECORD
  5
373
330
1
100
AcDbSymbolTableRecord
100
AcDbBlockTableRecord
  2
DRIL_SYMBOL_0$9
  0
BLOCK_RECORD
  5
376
330
1
100
AcDbSymbolTableRecord
100
AcDbBlockTableRecord
  2
DRIL_SYMBOL_1
  0
BLOCK_RECORD
  5
379
330
1
100
AcDbSymbolTableRecord
100
AcDbBlockTableRecord
  2
DRIL_SYMBOL_2$2
  0
BLOCK_RECORD
  5
37C
330
1
100
AcDbSymbolTableRecord
100
AcDbBlockTableRecord
  2
DRIL_SYMBOL_0
  0
BLOCK_RECORD
  5
37F
330
1
100
AcDbSymbolTableRecord
100
AcDbBlockTableRecord
  2
DRIL_SYMBOL_0$6
  0
BLOCK_RECORD
  5
382
330
1
100
AcDbSymbolTableRecord
100
AcDbBlockTableRecord
  2
DRIL_SYMBOL_1$3
  0
BLOCK_RECORD
  5
385
330
1
100
AcDbSymbolTableRecord
100
AcDbBlockTableRecord
  2
DRIL_SYMBOL_6$5
  0
BLOCK_RECORD
  5
388
330
1
100
AcDbSymbolTableRecord
100
AcDbBlockTableRecord
  2
DRIL_SYMBOL_0$7
  0
BLOCK_RECORD
  5
38B
330
1
100
AcDbSymbolTableRecord
100
AcDbBlockTableRecord
  2
DRIL_SYMBOL_0$8
  0
BLOCK_RECORD
  5
38E
330
1
100
AcDbSymbolTableRecord
100
AcDbBlockTableRecord
  2
DRIL_SYMBOL_1$2
  0
BLOCK_RECORD
  5
391
330
1
100
AcDbSymbolTableRecord
100
AcDbBlockTableRecord
  2
SMOOTH_0$0254
  0
BLOCK_RECORD
  5
396
330
1
100
AcDbSymbolTableRecord
100
AcDbBlockTableRecord
  2
SMOOTH_0$15
  0
BLOCK_RECORD
  5
39B
330
1
100
AcDbSymbolTableRecord
100
AcDbBlockTableRecord
  2
SMOOTH_0$1
  0
BLOCK_RECORD
  5
3A0
330
1
100
AcDbSymbolTableRecord
100
AcDbBlockTableRecord
  2
SMOOTH_0$254
  0
BLOCK_RECORD
  5
3A5
330
1
100
AcDbSymbolTableRecord
100
AcDbBlockTableRecord
  2
SMOOTH_0$2
  0
BLOCK_RECORD
  5
3AA
330
1
100
AcDbSymbolTableRecord
100
AcDbBlockTableRecord
  2
PAD_0
  0
BLOCK_RECORD
  5
3AF
330
1
100
AcDbSymbolTableRecord
100
AcDbBlockTableRecord
  2
PAD_1
  0
BLOCK_RECORD
  5
3B3
330
1
100
AcDbSymbolTableRecord
100
AcDbBlockTableRecord
  2
PAD_2
  0
BLOCK_RECORD
  5
3B6
330
1
100
AcDbSymbolTableRecord
100
AcDbBlockTableRecord
  2
PAD_3
  0
BLOCK_RECORD
  5
3BA
330
1
100
AcDbSymbolTableRecord
100
AcDbBlockTableRecord
  2
PAD_4
  0
BLOCK_RECORD
  5
3BF
330
1
100
AcDbSymbolTableRecord
100
AcDbBlockTableRecord
  2
PAD_5
  0
BLOCK_RECORD
  5
3C3
330
1
100
AcDbSymbolTableRecord
100
AcDbBlockTableRecord
  2
PAD_6
  0
BLOCK_RECORD
  5
3C8
330
1
100
AcDbSymbolTableRecord
100
AcDbBlockTableRecord
  2
PAD_7
  0
BLOCK_RECORD
  5
3CC
330
1
100
AcDbSymbolTableRecord
100
AcDbBlockTableRecord
  2
PAD_8
  0
BLOCK_RECORD
  5
3D0
330
1
100
AcDbSymbolTableRecord
100
AcDbBlockTableRecord
  2
PAD_9
  0
BLOCK_RECORD
  5
3D4
330
1
100
AcDbSymbolTableRecord
100
AcDbBlockTableRecord
  2
PAD_10
  0
BLOCK_RECORD
  5
3D9
330
1
100
AcDbSymbolTableRecord
100
AcDbBlockTableRecord
  2
PAD_11
  0
BLOCK_RECORD
  5
3DD
330
1
100
AcDbSymbolTableRecord
100
AcDbBlockTableRecord
  2
PAD_12
  0
BLOCK_RECORD
  5
3E2
330
1
100
AcDbSymbolTableRecord
100
AcDbBlockTableRecord
  2
PAD_13
  0
BLOCK_RECORD
  5
3E6
330
1
100
AcDbSymbolTableRecord
100
AcDbBlockTableRecord
  2
PAD_14
  0
BLOCK_RECORD
  5
3EA
330
1
100
AcDbSymbolTableRecord
100
AcDbBlockTableRecord
  2
PAD_15
  0
BLOCK_RECORD
  5
3F5
330
1
100
AcDbSymbolTableRecord
100
AcDbBlockTableRecord
  2
PAD_16
  0
BLOCK_RECORD
  5
3FA
330
1
100
AcDbSymbolTableRecord
100
AcDbBlockTableRecord
  2
PAD_17
  0
BLOCK_RECORD
  5
405
330
1
100
AcDbSymbolTableRecord
100
AcDbBlockTableRecord
  2
PAD_18
  0
BLOCK_RECORD
  5
40A
330
1
100
AcDbSymbolTableRecord
100
AcDbBlockTableRecord
  2
PAD_19
  0
BLOCK_RECORD
  5
40E
330
1
100
AcDbSymbolTableRecord
100
AcDbBlockTableRecord
  2
PAD_20
  0
BLOCK_RECORD
  5
412
330
1
100
AcDbSymbolTableRecord
100
AcDbBlockTableRecord
  2
PAD_21
  0
BLOCK_RECORD
  5
416
330
1
100
AcDbSymbolTableRecord
100
AcDbBlockTableRecord
  2
PAD_22
  0
BLOCK_RECORD
  5
41A
330
1
100
AcDbSymbolTableRecord
100
AcDbBlockTableRecord
  2
PAD_23
  0
BLOCK_RECORD
  5
41F
330
1
100
AcDbSymbolTableRecord
100
AcDbBlockTableRecord
  2
DRIL_HOLE_0$9
  0
BLOCK_RECORD
  5
425
330
1
100
AcDbSymbolTableRecord
100
AcDbBlockTableRecord
  2
DRIL_HOLE_1
  0
BLOCK_RECORD
  5
42B
330
1
100
AcDbSymbolTableRecord
100
AcDbBlockTableRecord
  2
DRIL_HOLE_2$2
  0
BLOCK_RECORD
  5
431
330
1
100
AcDbSymbolTableRecord
100
AcDbBlockTableRecord
  2
DRIL_HOLE_0
  0
BLOCK_RECORD
  5
435
330
1
100
AcDbSymbolTableRecord
100
AcDbBlockTableRecord
  2
DRIL_HOLE_0$6
  0
BLOCK_RECORD
  5
43B
330
1
100
AcDbSymbolTableRecord
100
AcDbBlockTableRecord
  2
DRIL_HOLE_1$3
  0
BLOCK_RECORD
  5
441
330
1
100
AcDbSymbolTableRecord
100
AcDbBlockTableRecord
  2
DRIL_HOLE_6$5
  0
BLOCK_RECORD
  5
447
330
1
100
AcDbSymbolTableRecord
100
AcDbBlockTableRecord
  2
DRIL_HOLE_0$7
  0
BLOCK_RECORD
  5
44D
330
1
100
AcDbSymbolTableRecord
100
AcDbBlockTableRecord
  2
DRIL_HOLE_0$8
  0
BLOCK_RECORD
  5
453
330
1
100
AcDbSymbolTableRecord
100
AcDbBlockTableRecord
  2
DRIL_HOLE_1$2
  0
BLOCK_RECORD
  5
459
330
1
100
AcDbSymbolTableRecord
100
AcDbBlockTableRecord
  2
$TD_AUDIT_GENERATED__0_0
  0
BLOCK_RECORD
  5
474
330
1
100
AcDbSymbolTableRecord
100
AcDbBlockTableRecord
  2
*D227
  0
BLOCK_RECORD
  5
47E
330
1
100
AcDbSymbolTableRecord
100
AcDbBlockTableRecord
  2
*D228
  0
BLOCK_RECORD
  5
488
330
1
100
AcDbSymbolTableRecord
100
AcDbBlockTableRecord
  2
*D229
  0
BLOCK_RECORD
  5
496
330
1
100
AcDbSymbolTableRecord
100
AcDbBlockTableRecord
  2
*D230
  0
BLOCK_RECORD
  5
4A0
330
1
100
AcDbSymbolTableRecord
100
AcDbBlockTableRecord
  2
*D231
  0
BLOCK_RECORD
  5
4AA
330
1
100
AcDbSymbolTableRecord
100
AcDbBlockTableRecord
  2
*D232
  0
BLOCK_RECORD
  5
4B8
330
1
100
AcDbSymbolTableRecord
100
AcDbBlockTableRecord
  2
*D233
  0
BLOCK_RECORD
  5
4C8
330
1
100
AcDbSymbolTableRecord
100
AcDbBlockTableRecord
  2
$TD_AUDIT_GENERATED__0_
  0
ENDTAB
  0
ENDSEC
  0
SECTION
  2
BLOCKS
  0
BLOCK
  5
20
330
1F
100
AcDbEntity
  8
0
100
AcDbBlockBegin
  2
*MODEL_SPACE
 70
     0
 10
0.0
 20
0.0
 30
0.0
  3
*MODEL_SPACE
  1

  0
ENDBLK
  5
21
330
1F
100
AcDbEntity
  8
0
100
AcDbBlockEnd
  0
BLOCK
  5
1C
330
1B
100
AcDbEntity
 67
     1
  8
0
100
AcDbBlockBegin
  2
*PAPER_SPACE
 70
     0
 10
0.0
 20
0.0
 30
0.0
  3
*PAPER_SPACE
  1

  0
ENDBLK
  5
1D
330
1B
100
AcDbEntity
 67
     1
  8
0
100
AcDbBlockEnd
  0
BLOCK
  5
A0
330
9F
100
AcDbEntity
  8
0
100
AcDbBlockBegin
  2
DBLAYERS
 70
     0
 10
0.0
 20
0.0
 30
0.0
  3
DBLAYERS
  1

  0
ENDBLK
  5
A1
330
9F
100
AcDbEntity
  8
0
100
AcDbBlockEnd
  0
BLOCK
  5
A3
330
A2
100
AcDbEntity
  8
0
100
AcDbBlockBegin
  2
BOARD_10
 70
     0
 10
0.0
 20
0.0
 30
0.0
  3
BOARD_10
  1

  0
ENDBLK
  5
A4
330
A2
100
AcDbEntity
  8
0
100
AcDbBlockEnd
  0
BLOCK
  5
A6
330
A5
100
AcDbEntity
  8
0
100
AcDbBlockBegin
  2
DRAWING_1
 70
     0
 10
0.0
 20
0.0
 30
0.0
  3
DRAWING_1
  1

  0
ENDBLK
  5
A7
330
A5
100
AcDbEntity
  8
0
100
AcDbBlockEnd
  0
BLOCK
  5
A9
330
A8
100
AcDbEntity
  8
0
100
AcDbBlockBegin
  2
DRAWING_2
 70
     0
 10
0.0
 20
0.0
 30
0.0
  3
DRAWING_2
  1

  0
ENDBLK
  5
AA
330
A8
100
AcDbEntity
  8
0
100
AcDbBlockEnd
  0
BLOCK
  5
AC
330
AB
100
AcDbEntity
  8
0
100
AcDbBlockBegin
  2
DRAWING_3
 70
     0
 10
0.0
 20
0.0
 30
0.0
  3
DRAWING_3
  1

  0
ENDBLK
  5
AD
330
AB
100
AcDbEntity
  8
0
100
AcDbBlockEnd
  0
BLOCK
  5
AF
330
AE
100
AcDbEntity
  8
0
100
AcDbBlockBegin
  2
DRAWING_4
 70
     0
 10
0.0
 20
0.0
 30
0.0
  3
DRAWING_4
  1

  0
ENDBLK
  5
B0
330
AE
100
AcDbEntity
  8
0
100
AcDbBlockEnd
  0
BLOCK
  5
B2
330
B1
100
AcDbEntity
  8
0
100
AcDbBlockBegin
  2
DRAWING_5
 70
     0
 10
0.0
 20
0.0
 30
0.0
  3
DRAWING_5
  1

  0
ENDBLK
  5
B3
330
B1
100
AcDbEntity
  8
0
100
AcDbBlockEnd
  0
BLOCK
  5
B5
330
B4
100
AcDbEntity
  8
0
100
AcDbBlockBegin
  2
DRAWING_6
 70
     0
 10
0.0
 20
0.0
 30
0.0
  3
DRAWING_6
  1

  0
ENDBLK
  5
B6
330
B4
100
AcDbEntity
  8
0
100
AcDbBlockEnd
  0
BLOCK
  5
B8
330
B7
100
AcDbEntity
  8
0
100
AcDbBlockBegin
  2
DRAWING_7
 70
     0
 10
0.0
 20
0.0
 30
0.0
  3
DRAWING_7
  1

  0
ENDBLK
  5
B9
330
B7
100
AcDbEntity
  8
0
100
AcDbBlockEnd
  0
BLOCK
  5
BB
330
BA
100
AcDbEntity
  8
0
100
AcDbBlockBegin
  2
DRAWING_8
 70
     0
 10
0.0
 20
0.0
 30
0.0
  3
DRAWING_8
  1

  0
ENDBLK
  5
BC
330
BA
100
AcDbEntity
  8
0
100
AcDbBlockEnd
  0
BLOCK
  5
BE
330
BD
100
AcDbEntity
  8
0
100
AcDbBlockBegin
  2
DRAWING_9
 70
     0
 10
0.0
 20
0.0
 30
0.0
  3
DRAWING_9
  1

  0
ENDBLK
  5
BF
330
BD
100
AcDbEntity
  8
0
100
AcDbBlockEnd
  0
BLOCK
  5
C1
330
C0
100
AcDbEntity
  8
0
100
AcDbBlockBegin
  2
DRAWING_11
 70
     0
 10
0.0
 20
0.0
 30
0.0
  3
DRAWING_11
  1

  0
ENDBLK
  5
C2
330
C0
100
AcDbEntity
  8
0
100
AcDbBlockEnd
  0
BLOCK
  5
C4
330
C3
100
AcDbEntity
  8
0
100
AcDbBlockBegin
  2
DRAWING_12
 70
     0
 10
0.0
 20
0.0
 30
0.0
  3
DRAWING_12
  1

  0
ENDBLK
  5
C5
330
C3
100
AcDbEntity
  8
0
100
AcDbBlockEnd
  0
BLOCK
  5
C7
330
C6
100
AcDbEntity
  8
0
100
AcDbBlockBegin
  2
DRAWING_13
 70
     0
 10
0.0
 20
0.0
 30
0.0
  3
DRAWING_13
  1

  0
ENDBLK
  5
C8
330
C6
100
AcDbEntity
  8
0
100
AcDbBlockEnd
  0
BLOCK
  5
CA
330
C9
100
AcDbEntity
  8
0
100
AcDbBlockBegin
  2
DRAWING_14
 70
     0
 10
0.0
 20
0.0
 30
0.0
  3
DRAWING_14
  1

  0
ENDBLK
  5
CB
330
C9
100
AcDbEntity
  8
0
100
AcDbBlockEnd
  0
BLOCK
  5
CD
330
CC
100
AcDbEntity
  8
0
100
AcDbBlockBegin
  2
DRAWING_15
 70
     0
 10
0.0
 20
0.0
 30
0.0
  3
DRAWING_15
  1

  0
ENDBLK
  5
CE
330
CC
100
AcDbEntity
  8
0
100
AcDbBlockEnd
  0
BLOCK
  5
D0
330
CF
100
AcDbEntity
  8
0
100
AcDbBlockBegin
  2
DRAWING_42
 70
     0
 10
0.0
 20
0.0
 30
0.0
  3
DRAWING_42
  1

  0
ENDBLK
  5
D1
330
CF
100
AcDbEntity
  8
0
100
AcDbBlockEnd
  0
BLOCK
  5
D3
330
D2
100
AcDbEntity
  8
0
100
AcDbBlockBegin
  2
KEEPOUT_16
 70
     0
 10
0.0
 20
0.0
 30
0.0
  3
KEEPOUT_16
  1

  0
ENDBLK
  5
D4
330
D2
100
AcDbEntity
  8
0
100
AcDbBlockEnd
  0
BLOCK
  5
D6
330
D5
100
AcDbEntity
  8
0
100
AcDbBlockBegin
  2
KEEPOUT_17
 70
     0
 10
0.0
 20
0.0
 30
0.0
  3
KEEPOUT_17
  1

  0
ENDBLK
  5
D7
330
D5
100
AcDbEntity
  8
0
100
AcDbBlockEnd
  0
BLOCK
  5
D9
330
D8
100
AcDbEntity
  8
0
100
AcDbBlockBegin
  2
KEEPOUT_18
 70
     0
 10
0.0
 20
0.0
 30
0.0
  3
KEEPOUT_18
  1

  0
ENDBLK
  5
DA
330
D8
100
AcDbEntity
  8
0
100
AcDbBlockEnd
  0
BLOCK
  5
DC
330
DB
100
AcDbEntity
  8
0
100
AcDbBlockBegin
  2
KEEPOUT_19
 70
     0
 10
0.0
 20
0.0
 30
0.0
  3
KEEPOUT_19
  1

  0
ENDBLK
  5
DD
330
DB
100
AcDbEntity
  8
0
100
AcDbBlockEnd
  0
BLOCK
  5
DF
330
DE
100
AcDbEntity
  8
0
100
AcDbBlockBegin
  2
PART_TOP_0
 70
     0
 10
0.0
 20
0.0
 30
0.0
  3
PART_TOP_0
  1

  0
ENDBLK
  5
E0
330
DE
100
AcDbEntity
  8
0
100
AcDbBlockEnd
  0
BLOCK
  5
E4
330
E1
100
AcDbEntity
  8
0
100
AcDbBlockBegin
  2
PART_TOP_1
 70
     0
 10
0.0
 20
0.0
 30
0.0
  3
PART_TOP_1
  1

  0
INSERT
  5
E2
330
E1
100
AcDbEntity
  8
0
  6
CONTINUOUS
 62
     7
100
AcDbBlockReference
  2

 10
0.0
 20
0.0
 30
0.0
  0
INSERT
  5
E3
330
E1
100
AcDbEntity
  8
0
  6
CONTINUOUS
 62
     7
100
AcDbBlockReference
  2

 10
0.0
 20
0.0
 30
0.0
  0
ENDBLK
  5
E5
330
E1
100
AcDbEntity
  8
0
100
AcDbBlockEnd
  0
BLOCK
  5
E9
330
E6
100
AcDbEntity
  8
0
100
AcDbBlockBegin
  2
PART_TOP_2
 70
     0
 10
0.0
 20
0.0
 30
0.0
  3
PART_TOP_2
  1

  0
INSERT
  5
E7
330
E6
100
AcDbEntity
  8
0
  6
CONTINUOUS
 62
     7
100
AcDbBlockReference
  2

 10
0.0
 20
0.0
 30
0.0
  0
INSERT
  5
E8
330
E6
100
AcDbEntity
  8
0
  6
CONTINUOUS
 62
     7
100
AcDbBlockReference
  2

 10
0.0
 20
0.0
 30
0.0
  0
ENDBLK
  5
EA
330
E6
100
AcDbEntity
  8
0
100
AcDbBlockEnd
  0
BLOCK
  5
EE
330
EB
100
AcDbEntity
  8
0
100
AcDbBlockBegin
  2
PART_TOP_3
 70
     0
 10
0.0
 20
0.0
 30
0.0
  3
PART_TOP_3
  1

  0
INSERT
  5
EC
330
EB
100
AcDbEntity
  8
0
  6
CONTINUOUS
 62
     7
100
AcDbBlockReference
  2

 10
0.0
 20
0.0
 30
0.0
  0
INSERT
  5
ED
330
EB
100
AcDbEntity
  8
0
  6
CONTINUOUS
 62
     7
100
AcDbBlockReference
  2

 10
0.0
 20
0.0
 30
0.0
  0
ENDBLK
  5
EF
330
EB
100
AcDbEntity
  8
0
100
AcDbBlockEnd
  0
BLOCK
  5
F3
330
F0
100
AcDbEntity
  8
0
100
AcDbBlockBegin
  2
PART_TOP_4
 70
     0
 10
0.0
 20
0.0
 30
0.0
  3
PART_TOP_4
  1

  0
INSERT
  5
F1
330
F0
100
AcDbEntity
  8
0
  6
CONTINUOUS
 62
     7
100
AcDbBlockReference
  2

 10
0.0
 20
0.0
 30
0.0
  0
INSERT
  5
F2
330
F0
100
AcDbEntity
  8
0
  6
CONTINUOUS
 62
     7
100
AcDbBlockReference
  2

 10
0.0
 20
0.0
 30
0.0
  0
ENDBLK
  5
F4
330
F0
100
AcDbEntity
  8
0
100
AcDbBlockEnd
  0
BLOCK
  5
F8
330
F5
100
AcDbEntity
  8
0
100
AcDbBlockBegin
  2
PART_TOP_5
 70
     0
 10
0.0
 20
0.0
 30
0.0
  3
PART_TOP_5
  1

  0
INSERT
  5
F6
330
F5
100
AcDbEntity
  8
0
  6
CONTINUOUS
 62
     7
100
AcDbBlockReference
  2

 10
0.0
 20
0.0
 30
0.0
  0
INSERT
  5
F7
330
F5
100
AcDbEntity
  8
0
  6
CONTINUOUS
 62
     7
100
AcDbBlockReference
  2

 10
0.0
 20
0.0
 30
0.0
  0
ENDBLK
  5
F9
330
F5
100
AcDbEntity
  8
0
100
AcDbBlockEnd
  0
BLOCK
  5
FD
330
FA
100
AcDbEntity
  8
0
100
AcDbBlockBegin
  2
PART_TOP_6
 70
     0
 10
0.0
 20
0.0
 30
0.0
  3
PART_TOP_6
  1

  0
INSERT
  5
FB
330
FA
100
AcDbEntity
  8
0
  6
CONTINUOUS
 62
     7
100
AcDbBlockReference
  2

 10
0.0
 20
0.0
 30
0.0
  0
INSERT
  5
FC
330
FA
100
AcDbEntity
  8
0
  6
CONTINUOUS
 62
     7
100
AcDbBlockReference
  2

 10
0.0
 20
0.0
 30
0.0
  0
ENDBLK
  5
FE
330
FA
100
AcDbEntity
  8
0
100
AcDbBlockEnd
  0
BLOCK
  5
102
330
FF
100
AcDbEntity
  8
0
100
AcDbBlockBegin
  2
PART_TOP_7
 70
     0
 10
0.0
 20
0.0
 30
0.0
  3
PART_TOP_7
  1

  0
INSERT
  5
100
330
FF
100
AcDbEntity
  8
0
  6
CONTINUOUS
 62
     7
100
AcDbBlockReference
  2

 10
0.0
 20
0.0
 30
0.0
  0
INSERT
  5
101
330
FF
100
AcDbEntity
  8
0
  6
CONTINUOUS
 62
     7
100
AcDbBlockReference
  2

 10
0.0
 20
0.0
 30
0.0
  0
ENDBLK
  5
103
330
FF
100
AcDbEntity
  8
0
100
AcDbBlockEnd
  0
BLOCK
  5
107
330
104
100
AcDbEntity
  8
0
100
AcDbBlockBegin
  2
PART_TOP_8
 70
     0
 10
0.0
 20
0.0
 30
0.0
  3
PART_TOP_8
  1

  0
INSERT
  5
105
330
104
100
AcDbEntity
  8
0
  6
CONTINUOUS
 62
     7
100
AcDbBlockReference
  2

 10
0.0
 20
0.0
 30
0.0
  0
INSERT
  5
106
330
104
100
AcDbEntity
  8
0
  6
CONTINUOUS
 62
     7
100
AcDbBlockReference
  2

 10
0.0
 20
0.0
 30
0.0
  0
ENDBLK
  5
108
330
104
100
AcDbEntity
  8
0
100
AcDbBlockEnd
  0
BLOCK
  5
10C
330
109
100
AcDbEntity
  8
0
100
AcDbBlockBegin
  2
PART_TOP_9
 70
     0
 10
0.0
 20
0.0
 30
0.0
  3
PART_TOP_9
  1

  0
INSERT
  5
10A
330
109
100
AcDbEntity
  8
0
  6
CONTINUOUS
 62
     7
100
AcDbBlockReference
  2

 10
0.0
 20
0.0
 30
0.0
  0
INSERT
  5
10B
330
109
100
AcDbEntity
  8
0
  6
CONTINUOUS
 62
     7
100
AcDbBlockReference
  2

 10
0.0
 20
0.0
 30
0.0
  0
ENDBLK
  5
10D
330
109
100
AcDbEntity
  8
0
100
AcDbBlockEnd
  0
BLOCK
  5
111
330
10E
100
AcDbEntity
  8
0
100
AcDbBlockBegin
  2
PART_TOP_10
 70
     0
 10
0.0
 20
0.0
 30
0.0
  3
PART_TOP_10
  1

  0
INSERT
  5
10F
330
10E
100
AcDbEntity
  8
0
  6
CONTINUOUS
 62
     7
100
AcDbBlockReference
  2

 10
0.0
 20
0.0
 30
0.0
  0
INSERT
  5
110
330
10E
100
AcDbEntity
  8
0
  6
CONTINUOUS
 62
     7
100
AcDbBlockReference
  2

 10
0.0
 20
0.0
 30
0.0
  0
ENDBLK
  5
112
330
10E
100
AcDbEntity
  8
0
100
AcDbBlockEnd
  0
BLOCK
  5
116
330
113
100
AcDbEntity
  8
0
100
AcDbBlockBegin
  2
PART_TOP_11
 70
     0
 10
0.0
 20
0.0
 30
0.0
  3
PART_TOP_11
  1

  0
INSERT
  5
114
330
113
100
AcDbEntity
  8
0
  6
CONTINUOUS
 62
     7
100
AcDbBlockReference
  2

 10
0.0
 20
0.0
 30
0.0
  0
INSERT
  5
115
330
113
100
AcDbEntity
  8
0
  6
CONTINUOUS
 62
     7
100
AcDbBlockReference
  2

 10
0.0
 20
0.0
 30
0.0
  0
ENDBLK
  5
117
330
113
100
AcDbEntity
  8
0
100
AcDbBlockEnd
  0
BLOCK
  5
11B
330
118
100
AcDbEntity
  8
0
100
AcDbBlockBegin
  2
PART_TOP_12
 70
     0
 10
0.0
 20
0.0
 30
0.0
  3
PART_TOP_12
  1

  0
INSERT
  5
119
330
118
100
AcDbEntity
  8
0
  6
CONTINUOUS
 62
     7
100
AcDbBlockReference
  2

 10
0.0
 20
0.0
 30
0.0
  0
INSERT
  5
11A
330
118
100
AcDbEntity
  8
0
  6
CONTINUOUS
 62
     7
100
AcDbBlockReference
  2

 10
0.0
 20
0.0
 30
0.0
  0
ENDBLK
  5
11C
330
118
100
AcDbEntity
  8
0
100
AcDbBlockEnd
  0
BLOCK
  5
120
330
11D
100
AcDbEntity
  8
0
100
AcDbBlockBegin
  2
PART_TOP_13
 70
     0
 10
0.0
 20
0.0
 30
0.0
  3
PART_TOP_13
  1

  0
INSERT
  5
11E
330
11D
100
AcDbEntity
  8
0
  6
CONTINUOUS
 62
     7
100
AcDbBlockReference
  2

 10
0.0
 20
0.0
 30
0.0
  0
INSERT
  5
11F
330
11D
100
AcDbEntity
  8
0
  6
CONTINUOUS
 62
     7
100
AcDbBlockReference
  2

 10
0.0
 20
0.0
 30
0.0
  0
ENDBLK
  5
121
330
11D
100
AcDbEntity
  8
0
100
AcDbBlockEnd
  0
BLOCK
  5
125
330
122
100
AcDbEntity
  8
0
100
AcDbBlockBegin
  2
PART_TOP_14
 70
     0
 10
0.0
 20
0.0
 30
0.0
  3
PART_TOP_14
  1

  0
INSERT
  5
123
330
122
100
AcDbEntity
  8
0
  6
CONTINUOUS
 62
     7
100
AcDbBlockReference
  2

 10
0.0
 20
0.0
 30
0.0
  0
INSERT
  5
124
330
122
100
AcDbEntity
  8
0
  6
CONTINUOUS
 62
     7
100
AcDbBlockReference
  2

 10
0.0
 20
0.0
 30
0.0
  0
ENDBLK
  5
126
330
122
100
AcDbEntity
  8
0
100
AcDbBlockEnd
  0
BLOCK
  5
12A
330
127
100
AcDbEntity
  8
0
100
AcDbBlockBegin
  2
PART_TOP_15
 70
     0
 10
0.0
 20
0.0
 30
0.0
  3
PART_TOP_15
  1

  0
INSERT
  5
128
330
127
100
AcDbEntity
  8
0
  6
CONTINUOUS
 62
     7
100
AcDbBlockReference
  2

 10
0.0
 20
0.0
 30
0.0
  0
INSERT
  5
129
330
127
100
AcDbEntity
  8
0
  6
CONTINUOUS
 62
     7
100
AcDbBlockReference
  2

 10
0.0
 20
0.0
 30
0.0
  0
ENDBLK
  5
12B
330
127
100
AcDbEntity
  8
0
100
AcDbBlockEnd
  0
BLOCK
  5
12F
330
12C
100
AcDbEntity
  8
0
100
AcDbBlockBegin
  2
PART_TOP_16
 70
     0
 10
0.0
 20
0.0
 30
0.0
  3
PART_TOP_16
  1

  0
INSERT
  5
12D
330
12C
100
AcDbEntity
  8
0
  6
CONTINUOUS
 62
     7
100
AcDbBlockReference
  2

 10
0.0
 20
0.0
 30
0.0
  0
INSERT
  5
12E
330
12C
100
AcDbEntity
  8
0
  6
CONTINUOUS
 62
     7
100
AcDbBlockReference
  2

 10
0.0
 20
0.0
 30
0.0
  0
ENDBLK
  5
130
330
12C
100
AcDbEntity
  8
0
100
AcDbBlockEnd
  0
BLOCK
  5
134
330
131
100
AcDbEntity
  8
0
100
AcDbBlockBegin
  2
PART_TOP_17
 70
     0
 10
0.0
 20
0.0
 30
0.0
  3
PART_TOP_17
  1

  0
INSERT
  5
132
330
131
100
AcDbEntity
  8
0
  6
CONTINUOUS
 62
     7
100
AcDbBlockReference
  2

 10
0.0
 20
0.0
 30
0.0
  0
INSERT
  5
133
330
131
100
AcDbEntity
  8
0
  6
CONTINUOUS
 62
     7
100
AcDbBlockReference
  2

 10
0.0
 20
0.0
 30
0.0
  0
ENDBLK
  5
135
330
131
100
AcDbEntity
  8
0
100
AcDbBlockEnd
  0
BLOCK
  5
139
330
136
100
AcDbEntity
  8
0
100
AcDbBlockBegin
  2
PART_TOP_18
 70
     0
 10
0.0
 20
0.0
 30
0.0
  3
PART_TOP_18
  1

  0
INSERT
  5
137
330
136
100
AcDbEntity
  8
0
  6
CONTINUOUS
 62
     7
100
AcDbBlockReference
  2

 10
0.0
 20
0.0
 30
0.0
  0
INSERT
  5
138
330
136
100
AcDbEntity
  8
0
  6
CONTINUOUS
 62
     7
100
AcDbBlockReference
  2

 10
0.0
 20
0.0
 30
0.0
  0
ENDBLK
  5
13A
330
136
100
AcDbEntity
  8
0
100
AcDbBlockEnd
  0
BLOCK
  5
13E
330
13B
100
AcDbEntity
  8
0
100
AcDbBlockBegin
  2
PART_TOP_19
 70
     0
 10
0.0
 20
0.0
 30
0.0
  3
PART_TOP_19
  1

  0
INSERT
  5
13C
330
13B
100
AcDbEntity
  8
0
  6
CONTINUOUS
 62
     7
100
AcDbBlockReference
  2

 10
0.0
 20
0.0
 30
0.0
  0
INSERT
  5
13D
330
13B
100
AcDbEntity
  8
0
  6
CONTINUOUS
 62
     7
100
AcDbBlockReference
  2

 10
0.0
 20
0.0
 30
0.0
  0
ENDBLK
  5
13F
330
13B
100
AcDbEntity
  8
0
100
AcDbBlockEnd
  0
BLOCK
  5
143
330
140
100
AcDbEntity
  8
0
100
AcDbBlockBegin
  2
PART_TOP_20
 70
     0
 10
0.0
 20
0.0
 30
0.0
  3
PART_TOP_20
  1

  0
INSERT
  5
141
330
140
100
AcDbEntity
  8
0
  6
CONTINUOUS
 62
     7
100
AcDbBlockReference
  2

 10
0.0
 20
0.0
 30
0.0
  0
INSERT
  5
142
330
140
100
AcDbEntity
  8
0
  6
CONTINUOUS
 62
     7
100
AcDbBlockReference
  2

 10
0.0
 20
0.0
 30
0.0
  0
ENDBLK
  5
144
330
140
100
AcDbEntity
  8
0
100
AcDbBlockEnd
  0
BLOCK
  5
148
330
145
100
AcDbEntity
  8
0
100
AcDbBlockBegin
  2
PART_TOP_21
 70
     0
 10
0.0
 20
0.0
 30
0.0
  3
PART_TOP_21
  1

  0
INSERT
  5
146
330
145
100
AcDbEntity
  8
0
  6
CONTINUOUS
 62
     7
100
AcDbBlockReference
  2

 10
0.0
 20
0.0
 30
0.0
  0
INSERT
  5
147
330
145
100
AcDbEntity
  8
0
  6
CONTINUOUS
 62
     7
100
AcDbBlockReference
  2

 10
0.0
 20
0.0
 30
0.0
  0
ENDBLK
  5
149
330
145
100
AcDbEntity
  8
0
100
AcDbBlockEnd
  0
BLOCK
  5
14D
330
14A
100
AcDbEntity
  8
0
100
AcDbBlockBegin
  2
PART_TOP_22
 70
     0
 10
0.0
 20
0.0
 30
0.0
  3
PART_TOP_22
  1

  0
INSERT
  5
14B
330
14A
100
AcDbEntity
  8
0
  6
CONTINUOUS
 62
     7
100
AcDbBlockReference
  2

 10
0.0
 20
0.0
 30
0.0
  0
INSERT
  5
14C
330
14A
100
AcDbEntity
  8
0
  6
CONTINUOUS
 62
     7
100
AcDbBlockReference
  2

 10
0.0
 20
0.0
 30
0.0
  0
ENDBLK
  5
14E
330
14A
100
AcDbEntity
  8
0
100
AcDbBlockEnd
  0
BLOCK
  5
152
330
14F
100
AcDbEntity
  8
0
100
AcDbBlockBegin
  2
PART_TOP_23
 70
     0
 10
0.0
 20
0.0
 30
0.0
  3
PART_TOP_23
  1

  0
INSERT
  5
150
330
14F
100
AcDbEntity
  8
0
  6
CONTINUOUS
 62
     7
100
AcDbBlockReference
  2

 10
0.0
 20
0.0
 30
0.0
  0
INSERT
  5
151
330
14F
100
AcDbEntity
  8
0
  6
CONTINUOUS
 62
     7
100
AcDbBlockReference
  2

 10
0.0
 20
0.0
 30
0.0
  0
ENDBLK
  5
153
330
14F
100
AcDbEntity
  8
0
100
AcDbBlockEnd
  0
BLOCK
  5
157
330
154
100
AcDbEntity
  8
0
100
AcDbBlockBegin
  2
PART_TOP_24
 70
     0
 10
0.0
 20
0.0
 30
0.0
  3
PART_TOP_24
  1

  0
INSERT
  5
155
330
154
100
AcDbEntity
  8
0
  6
CONTINUOUS
 62
     7
100
AcDbBlockReference
  2

 10
0.0
 20
0.0
 30
0.0
  0
INSERT
  5
156
330
154
100
AcDbEntity
  8
0
  6
CONTINUOUS
 62
     7
100
AcDbBlockReference
  2

 10
0.0
 20
0.0
 30
0.0
  0
ENDBLK
  5
158
330
154
100
AcDbEntity
  8
0
100
AcDbBlockEnd
  0
BLOCK
  5
15C
330
159
100
AcDbEntity
  8
0
100
AcDbBlockBegin
  2
PART_TOP_25
 70
     0
 10
0.0
 20
0.0
 30
0.0
  3
PART_TOP_25
  1

  0
INSERT
  5
15A
330
159
100
AcDbEntity
  8
0
  6
CONTINUOUS
 62
     7
100
AcDbBlockReference
  2

 10
0.0
 20
0.0
 30
0.0
  0
INSERT
  5
15B
330
159
100
AcDbEntity
  8
0
  6
CONTINUOUS
 62
     7
100
AcDbBlockReference
  2

 10
0.0
 20
0.0
 30
0.0
  0
ENDBLK
  5
15D
330
159
100
AcDbEntity
  8
0
100
AcDbBlockEnd
  0
BLOCK
  5
161
330
15E
100
AcDbEntity
  8
0
100
AcDbBlockBegin
  2
PART_TOP_26
 70
     0
 10
0.0
 20
0.0
 30
0.0
  3
PART_TOP_26
  1

  0
INSERT
  5
15F
330
15E
100
AcDbEntity
  8
0
  6
CONTINUOUS
 62
     7
100
AcDbBlockReference
  2

 10
0.0
 20
0.0
 30
0.0
  0
INSERT
  5
160
330
15E
100
AcDbEntity
  8
0
  6
CONTINUOUS
 62
     7
100
AcDbBlockReference
  2

 10
0.0
 20
0.0
 30
0.0
  0
ENDBLK
  5
162
330
15E
100
AcDbEntity
  8
0
100
AcDbBlockEnd
  0
BLOCK
  5
166
330
163
100
AcDbEntity
  8
0
100
AcDbBlockBegin
  2
PART_TOP_27
 70
     0
 10
0.0
 20
0.0
 30
0.0
  3
PART_TOP_27
  1

  0
INSERT
  5
164
330
163
100
AcDbEntity
  8
0
  6
CONTINUOUS
 62
     7
100
AcDbBlockReference
  2

 10
0.0
 20
0.0
 30
0.0
  0
INSERT
  5
165
330
163
100
AcDbEntity
  8
0
  6
CONTINUOUS
 62
     7
100
AcDbBlockReference
  2

 10
0.0
 20
0.0
 30
0.0
  0
ENDBLK
  5
167
330
163
100
AcDbEntity
  8
0
100
AcDbBlockEnd
  0
BLOCK
  5
16B
330
168
100
AcDbEntity
  8
0
100
AcDbBlockBegin
  2
PART_TOP_28
 70
     0
 10
0.0
 20
0.0
 30
0.0
  3
PART_TOP_28
  1

  0
INSERT
  5
169
330
168
100
AcDbEntity
  8
0
  6
CONTINUOUS
 62
     7
100
AcDbBlockReference
  2

 10
0.0
 20
0.0
 30
0.0
  0
INSERT
  5
16A
330
168
100
AcDbEntity
  8
0
  6
CONTINUOUS
 62
     7
100
AcDbBlockReference
  2

 10
0.0
 20
0.0
 30
0.0
  0
ENDBLK
  5
16C
330
168
100
AcDbEntity
  8
0
100
AcDbBlockEnd
  0
BLOCK
  5
170
330
16D
100
AcDbEntity
  8
0
100
AcDbBlockBegin
  2
PART_TOP_29
 70
     0
 10
0.0
 20
0.0
 30
0.0
  3
PART_TOP_29
  1

  0
INSERT
  5
16E
330
16D
100
AcDbEntity
  8
0
  6
CONTINUOUS
 62
     7
100
AcDbBlockReference
  2

 10
0.0
 20
0.0
 30
0.0
  0
INSERT
  5
16F
330
16D
100
AcDbEntity
  8
0
  6
CONTINUOUS
 62
     7
100
AcDbBlockReference
  2

 10
0.0
 20
0.0
 30
0.0
  0
ENDBLK
  5
171
330
16D
100
AcDbEntity
  8
0
100
AcDbBlockEnd
  0
BLOCK
  5
175
330
172
100
AcDbEntity
  8
0
100
AcDbBlockBegin
  2
PART_TOP_30
 70
     0
 10
0.0
 20
0.0
 30
0.0
  3
PART_TOP_30
  1

  0
INSERT
  5
173
330
172
100
AcDbEntity
  8
0
  6
CONTINUOUS
 62
     7
100
AcDbBlockReference
  2

 10
0.0
 20
0.0
 30
0.0
  0
INSERT
  5
174
330
172
100
AcDbEntity
  8
0
  6
CONTINUOUS
 62
     7
100
AcDbBlockReference
  2

 10
0.0
 20
0.0
 30
0.0
  0
ENDBLK
  5
176
330
172
100
AcDbEntity
  8
0
100
AcDbBlockEnd
  0
BLOCK
  5
17A
330
177
100
AcDbEntity
  8
0
100
AcDbBlockBegin
  2
PART_TOP_31
 70
     0
 10
0.0
 20
0.0
 30
0.0
  3
PART_TOP_31
  1

  0
INSERT
  5
178
330
177
100
AcDbEntity
  8
0
  6
CONTINUOUS
 62
     7
100
AcDbBlockReference
  2

 10
0.0
 20
0.0
 30
0.0
  0
INSERT
  5
179
330
177
100
AcDbEntity
  8
0
  6
CONTINUOUS
 62
     7
100
AcDbBlockReference
  2

 10
0.0
 20
0.0
 30
0.0
  0
ENDBLK
  5
17B
330
177
100
AcDbEntity
  8
0
100
AcDbBlockEnd
  0
BLOCK
  5
17F
330
17C
100
AcDbEntity
  8
0
100
AcDbBlockBegin
  2
PART_TOP_32
 70
     0
 10
0.0
 20
0.0
 30
0.0
  3
PART_TOP_32
  1

  0
INSERT
  5
17D
330
17C
100
AcDbEntity
  8
0
  6
CONTINUOUS
 62
     7
100
AcDbBlockReference
  2

 10
0.0
 20
0.0
 30
0.0
  0
INSERT
  5
17E
330
17C
100
AcDbEntity
  8
0
  6
CONTINUOUS
 62
     7
100
AcDbBlockReference
  2

 10
0.0
 20
0.0
 30
0.0
  0
ENDBLK
  5
180
330
17C
100
AcDbEntity
  8
0
100
AcDbBlockEnd
  0
BLOCK
  5
184
330
181
100
AcDbEntity
  8
0
100
AcDbBlockBegin
  2
PART_TOP_33
 70
     0
 10
0.0
 20
0.0
 30
0.0
  3
PART_TOP_33
  1

  0
INSERT
  5
182
330
181
100
AcDbEntity
  8
0
  6
CONTINUOUS
 62
     7
100
AcDbBlockReference
  2

 10
0.0
 20
0.0
 30
0.0
  0
INSERT
  5
183
330
181
100
AcDbEntity
  8
0
  6
CONTINUOUS
 62
     7
100
AcDbBlockReference
  2

 10
0.0
 20
0.0
 30
0.0
  0
ENDBLK
  5
185
330
181
100
AcDbEntity
  8
0
100
AcDbBlockEnd
  0
BLOCK
  5
189
330
186
100
AcDbEntity
  8
0
100
AcDbBlockBegin
  2
PART_TOP_34
 70
     0
 10
0.0
 20
0.0
 30
0.0
  3
PART_TOP_34
  1

  0
INSERT
  5
187
330
186
100
AcDbEntity
  8
0
  6
CONTINUOUS
 62
     7
100
AcDbBlockReference
  2

 10
0.0
 20
0.0
 30
0.0
  0
INSERT
  5
188
330
186
100
AcDbEntity
  8
0
  6
CONTINUOUS
 62
     7
100
AcDbBlockReference
  2

 10
0.0
 20
0.0
 30
0.0
  0
ENDBLK
  5
18A
330
186
100
AcDbEntity
  8
0
100
AcDbBlockEnd
  0
BLOCK
  5
18E
330
18B
100
AcDbEntity
  8
0
100
AcDbBlockBegin
  2
PART_TOP_35
 70
     0
 10
0.0
 20
0.0
 30
0.0
  3
PART_TOP_35
  1

  0
INSERT
  5
18C
330
18B
100
AcDbEntity
  8
0
  6
CONTINUOUS
 62
     7
100
AcDbBlockReference
  2

 10
0.0
 20
0.0
 30
0.0
  0
INSERT
  5
18D
330
18B
100
AcDbEntity
  8
0
  6
CONTINUOUS
 62
     7
100
AcDbBlockReference
  2

 10
0.0
 20
0.0
 30
0.0
  0
ENDBLK
  5
18F
330
18B
100
AcDbEntity
  8
0
100
AcDbBlockEnd
  0
BLOCK
  5
193
330
190
100
AcDbEntity
  8
0
100
AcDbBlockBegin
  2
PART_TOP_36
 70
     0
 10
0.0
 20
0.0
 30
0.0
  3
PART_TOP_36
  1

  0
INSERT
  5
191
330
190
100
AcDbEntity
  8
0
  6
CONTINUOUS
 62
     7
100
AcDbBlockReference
  2

 10
0.0
 20
0.0
 30
0.0
  0
INSERT
  5
192
330
190
100
AcDbEntity
  8
0
  6
CONTINUOUS
 62
     7
100
AcDbBlockReference
  2

 10
0.0
 20
0.0
 30
0.0
  0
ENDBLK
  5
194
330
190
100
AcDbEntity
  8
0
100
AcDbBlockEnd
  0
BLOCK
  5
198
330
195
100
AcDbEntity
  8
0
100
AcDbBlockBegin
  2
PART_TOP_37
 70
     0
 10
0.0
 20
0.0
 30
0.0
  3
PART_TOP_37
  1

  0
INSERT
  5
196
330
195
100
AcDbEntity
  8
0
  6
CONTINUOUS
 62
     7
100
AcDbBlockReference
  2

 10
0.0
 20
0.0
 30
0.0
  0
INSERT
  5
197
330
195
100
AcDbEntity
  8
0
  6
CONTINUOUS
 62
     7
100
AcDbBlockReference
  2

 10
0.0
 20
0.0
 30
0.0
  0
ENDBLK
  5
199
330
195
100
AcDbEntity
  8
0
100
AcDbBlockEnd
  0
BLOCK
  5
19D
330
19A
100
AcDbEntity
  8
0
100
AcDbBlockBegin
  2
PART_TOP_38
 70
     0
 10
0.0
 20
0.0
 30
0.0
  3
PART_TOP_38
  1

  0
INSERT
  5
19B
330
19A
100
AcDbEntity
  8
0
  6
CONTINUOUS
 62
     7
100
AcDbBlockReference
  2

 10
0.0
 20
0.0
 30
0.0
  0
INSERT
  5
19C
330
19A
100
AcDbEntity
  8
0
  6
CONTINUOUS
 62
     7
100
AcDbBlockReference
  2

 10
0.0
 20
0.0
 30
0.0
  0
ENDBLK
  5
19E
330
19A
100
AcDbEntity
  8
0
100
AcDbBlockEnd
  0
BLOCK
  5
1A2
330
19F
100
AcDbEntity
  8
0
100
AcDbBlockBegin
  2
PART_TOP_39
 70
     0
 10
0.0
 20
0.0
 30
0.0
  3
PART_TOP_39
  1

  0
INSERT
  5
1A0
330
19F
100
AcDbEntity
  8
0
  6
CONTINUOUS
 62
     7
100
AcDbBlockReference
  2

 10
0.0
 20
0.0
 30
0.0
  0
INSERT
  5
1A1
330
19F
100
AcDbEntity
  8
0
  6
CONTINUOUS
 62
     7
100
AcDbBlockReference
  2

 10
0.0
 20
0.0
 30
0.0
  0
ENDBLK
  5
1A3
330
19F
100
AcDbEntity
  8
0
100
AcDbBlockEnd
  0
BLOCK
  5
1A7
330
1A4
100
AcDbEntity
  8
0
100
AcDbBlockBegin
  2
PART_TOP_40
 70
     0
 10
0.0
 20
0.0
 30
0.0
  3
PART_TOP_40
  1

  0
INSERT
  5
1A5
330
1A4
100
AcDbEntity
  8
0
  6
CONTINUOUS
 62
     7
100
AcDbBlockReference
  2

 10
0.0
 20
0.0
 30
0.0
  0
INSERT
  5
1A6
330
1A4
100
AcDbEntity
  8
0
  6
CONTINUOUS
 62
     7
100
AcDbBlockReference
  2

 10
0.0
 20
0.0
 30
0.0
  0
ENDBLK
  5
1A8
330
1A4
100
AcDbEntity
  8
0
100
AcDbBlockEnd
  0
BLOCK
  5
1AC
330
1A9
100
AcDbEntity
  8
0
100
AcDbBlockBegin
  2
PART_TOP_41
 70
     0
 10
0.0
 20
0.0
 30
0.0
  3
PART_TOP_41
  1

  0
INSERT
  5
1AA
330
1A9
100
AcDbEntity
  8
0
  6
CONTINUOUS
 62
     7
100
AcDbBlockReference
  2

 10
0.0
 20
0.0
 30
0.0
  0
INSERT
  5
1AB
330
1A9
100
AcDbEntity
  8
0
  6
CONTINUOUS
 62
     7
100
AcDbBlockReference
  2

 10
0.0
 20
0.0
 30
0.0
  0
ENDBLK
  5
1AD
330
1A9
100
AcDbEntity
  8
0
100
AcDbBlockEnd
  0
BLOCK
  5
1B1
330
1AE
100
AcDbEntity
  8
0
100
AcDbBlockBegin
  2
PART_TOP_42
 70
     0
 10
0.0
 20
0.0
 30
0.0
  3
PART_TOP_42
  1

  0
INSERT
  5
1AF
330
1AE
100
AcDbEntity
  8
0
  6
CONTINUOUS
 62
     7
100
AcDbBlockReference
  2

 10
0.0
 20
0.0
 30
0.0
  0
INSERT
  5
1B0
330
1AE
100
AcDbEntity
  8
0
  6
CONTINUOUS
 62
     7
100
AcDbBlockReference
  2

 10
0.0
 20
0.0
 30
0.0
  0
ENDBLK
  5
1B2
330
1AE
100
AcDbEntity
  8
0
100
AcDbBlockEnd
  0
BLOCK
  5
1B6
330
1B3
100
AcDbEntity
  8
0
100
AcDbBlockBegin
  2
PART_TOP_43
 70
     0
 10
0.0
 20
0.0
 30
0.0
  3
PART_TOP_43
  1

  0
INSERT
  5
1B4
330
1B3
100
AcDbEntity
  8
0
  6
CONTINUOUS
 62
     7
100
AcDbBlockReference
  2

 10
0.0
 20
0.0
 30
0.0
  0
INSERT
  5
1B5
330
1B3
100
AcDbEntity
  8
0
  6
CONTINUOUS
 62
     7
100
AcDbBlockReference
  2

 10
0.0
 20
0.0
 30
0.0
  0
ENDBLK
  5
1B7
330
1B3
100
AcDbEntity
  8
0
100
AcDbBlockEnd
  0
BLOCK
  5
1BB
330
1B8
100
AcDbEntity
  8
0
100
AcDbBlockBegin
  2
PART_TOP_44
 70
     0
 10
0.0
 20
0.0
 30
0.0
  3
PART_TOP_44
  1

  0
INSERT
  5
1B9
330
1B8
100
AcDbEntity
  8
0
  6
CONTINUOUS
 62
     7
100
AcDbBlockReference
  2

 10
0.0
 20
0.0
 30
0.0
  0
INSERT
  5
1BA
330
1B8
100
AcDbEntity
  8
0
  6
CONTINUOUS
 62
     7
100
AcDbBlockReference
  2

 10
0.0
 20
0.0
 30
0.0
  0
ENDBLK
  5
1BC
330
1B8
100
AcDbEntity
  8
0
100
AcDbBlockEnd
  0
BLOCK
  5
1C0
330
1BD
100
AcDbEntity
  8
0
100
AcDbBlockBegin
  2
PART_TOP_45
 70
     0
 10
0.0
 20
0.0
 30
0.0
  3
PART_TOP_45
  1

  0
INSERT
  5
1BE
330
1BD
100
AcDbEntity
  8
0
  6
CONTINUOUS
 62
     7
100
AcDbBlockReference
  2

 10
0.0
 20
0.0
 30
0.0
  0
INSERT
  5
1BF
330
1BD
100
AcDbEntity
  8
0
  6
CONTINUOUS
 62
     7
100
AcDbBlockReference
  2

 10
0.0
 20
0.0
 30
0.0
  0
ENDBLK
  5
1C1
330
1BD
100
AcDbEntity
  8
0
100
AcDbBlockEnd
  0
BLOCK
  5
1C5
330
1C2
100
AcDbEntity
  8
0
100
AcDbBlockBegin
  2
PART_TOP_46
 70
     0
 10
0.0
 20
0.0
 30
0.0
  3
PART_TOP_46
  1

  0
INSERT
  5
1C3
330
1C2
100
AcDbEntity
  8
0
  6
CONTINUOUS
 62
     7
100
AcDbBlockReference
  2

 10
0.0
 20
0.0
 30
0.0
  0
INSERT
  5
1C4
330
1C2
100
AcDbEntity
  8
0
  6
CONTINUOUS
 62
     7
100
AcDbBlockReference
  2

 10
0.0
 20
0.0
 30
0.0
  0
ENDBLK
  5
1C6
330
1C2
100
AcDbEntity
  8
0
100
AcDbBlockEnd
  0
BLOCK
  5
1CA
330
1C7
100
AcDbEntity
  8
0
100
AcDbBlockBegin
  2
PART_TOP_47
 70
     0
 10
0.0
 20
0.0
 30
0.0
  3
PART_TOP_47
  1

  0
INSERT
  5
1C8
330
1C7
100
AcDbEntity
  8
0
  6
CONTINUOUS
 62
     7
100
AcDbBlockReference
  2

 10
0.0
 20
0.0
 30
0.0
  0
INSERT
  5
1C9
330
1C7
100
AcDbEntity
  8
0
  6
CONTINUOUS
 62
     7
100
AcDbBlockReference
  2

 10
0.0
 20
0.0
 30
0.0
  0
ENDBLK
  5
1CB
330
1C7
100
AcDbEntity
  8
0
100
AcDbBlockEnd
  0
BLOCK
  5
1CF
330
1CC
100
AcDbEntity
  8
0
100
AcDbBlockBegin
  2
PART_TOP_48
 70
     0
 10
0.0
 20
0.0
 30
0.0
  3
PART_TOP_48
  1

  0
INSERT
  5
1CD
330
1CC
100
AcDbEntity
  8
0
  6
CONTINUOUS
 62
     7
100
AcDbBlockReference
  2

 10
0.0
 20
0.0
 30
0.0
  0
INSERT
  5
1CE
330
1CC
100
AcDbEntity
  8
0
  6
CONTINUOUS
 62
     7
100
AcDbBlockReference
  2

 10
0.0
 20
0.0
 30
0.0
  0
ENDBLK
  5
1D0
330
1CC
100
AcDbEntity
  8
0
100
AcDbBlockEnd
  0
BLOCK
  5
1D4
330
1D1
100
AcDbEntity
  8
0
100
AcDbBlockBegin
  2
PART_TOP_49
 70
     0
 10
0.0
 20
0.0
 30
0.0
  3
PART_TOP_49
  1

  0
INSERT
  5
1D2
330
1D1
100
AcDbEntity
  8
0
  6
CONTINUOUS
 62
     7
100
AcDbBlockReference
  2

 10
0.0
 20
0.0
 30
0.0
  0
INSERT
  5
1D3
330
1D1
100
AcDbEntity
  8
0
  6
CONTINUOUS
 62
     7
100
AcDbBlockReference
  2

 10
0.0
 20
0.0
 30
0.0
  0
ENDBLK
  5
1D5
330
1D1
100
AcDbEntity
  8
0
100
AcDbBlockEnd
  0
BLOCK
  5
1D9
330
1D6
100
AcDbEntity
  8
0
100
AcDbBlockBegin
  2
PART_TOP_50
 70
     0
 10
0.0
 20
0.0
 30
0.0
  3
PART_TOP_50
  1

  0
INSERT
  5
1D7
330
1D6
100
AcDbEntity
  8
0
  6
CONTINUOUS
 62
     7
100
AcDbBlockReference
  2

 10
0.0
 20
0.0
 30
0.0
  0
INSERT
  5
1D8
330
1D6
100
AcDbEntity
  8
0
  6
CONTINUOUS
 62
     7
100
AcDbBlockReference
  2

 10
0.0
 20
0.0
 30
0.0
  0
ENDBLK
  5
1DA
330
1D6
100
AcDbEntity
  8
0
100
AcDbBlockEnd
  0
BLOCK
  5
1DE
330
1DB
100
AcDbEntity
  8
0
100
AcDbBlockBegin
  2
PART_TOP_51
 70
     0
 10
0.0
 20
0.0
 30
0.0
  3
PART_TOP_51
  1

  0
INSERT
  5
1DC
330
1DB
100
AcDbEntity
  8
0
  6
CONTINUOUS
 62
     7
100
AcDbBlockReference
  2

 10
0.0
 20
0.0
 30
0.0
  0
INSERT
  5
1DD
330
1DB
100
AcDbEntity
  8
0
  6
CONTINUOUS
 62
     7
100
AcDbBlockReference
  2

 10
0.0
 20
0.0
 30
0.0
  0
ENDBLK
  5
1DF
330
1DB
100
AcDbEntity
  8
0
100
AcDbBlockEnd
  0
BLOCK
  5
1E3
330
1E0
100
AcDbEntity
  8
0
100
AcDbBlockBegin
  2
PART_TOP_52
 70
     0
 10
0.0
 20
0.0
 30
0.0
  3
PART_TOP_52
  1

  0
INSERT
  5
1E1
330
1E0
100
AcDbEntity
  8
0
  6
CONTINUOUS
 62
     7
100
AcDbBlockReference
  2

 10
0.0
 20
0.0
 30
0.0
  0
INSERT
  5
1E2
330
1E0
100
AcDbEntity
  8
0
  6
CONTINUOUS
 62
     7
100
AcDbBlockReference
  2

 10
0.0
 20
0.0
 30
0.0
  0
ENDBLK
  5
1E4
330
1E0
100
AcDbEntity
  8
0
100
AcDbBlockEnd
  0
BLOCK
  5
1E8
330
1E5
100
AcDbEntity
  8
0
100
AcDbBlockBegin
  2
PART_TOP_53
 70
     0
 10
0.0
 20
0.0
 30
0.0
  3
PART_TOP_53
  1

  0
INSERT
  5
1E6
330
1E5
100
AcDbEntity
  8
0
  6
CONTINUOUS
 62
     7
100
AcDbBlockReference
  2

 10
0.0
 20
0.0
 30
0.0
  0
INSERT
  5
1E7
330
1E5
100
AcDbEntity
  8
0
  6
CONTINUOUS
 62
     7
100
AcDbBlockReference
  2

 10
0.0
 20
0.0
 30
0.0
  0
ENDBLK
  5
1E9
330
1E5
100
AcDbEntity
  8
0
100
AcDbBlockEnd
  0
BLOCK
  5
1ED
330
1EA
100
AcDbEntity
  8
0
100
AcDbBlockBegin
  2
PART_TOP_54
 70
     0
 10
0.0
 20
0.0
 30
0.0
  3
PART_TOP_54
  1

  0
INSERT
  5
1EB
330
1EA
100
AcDbEntity
  8
0
  6
CONTINUOUS
 62
     7
100
AcDbBlockReference
  2

 10
0.0
 20
0.0
 30
0.0
  0
INSERT
  5
1EC
330
1EA
100
AcDbEntity
  8
0
  6
CONTINUOUS
 62
     7
100
AcDbBlockReference
  2

 10
0.0
 20
0.0
 30
0.0
  0
ENDBLK
  5
1EE
330
1EA
100
AcDbEntity
  8
0
100
AcDbBlockEnd
  0
BLOCK
  5
1F2
330
1EF
100
AcDbEntity
  8
0
100
AcDbBlockBegin
  2
PART_TOP_55
 70
     0
 10
0.0
 20
0.0
 30
0.0
  3
PART_TOP_55
  1

  0
INSERT
  5
1F0
330
1EF
100
AcDbEntity
  8
0
  6
CONTINUOUS
 62
     7
100
AcDbBlockReference
  2

 10
0.0
 20
0.0
 30
0.0
  0
INSERT
  5
1F1
330
1EF
100
AcDbEntity
  8
0
  6
CONTINUOUS
 62
     7
100
AcDbBlockReference
  2

 10
0.0
 20
0.0
 30
0.0
  0
ENDBLK
  5
1F3
330
1EF
100
AcDbEntity
  8
0
100
AcDbBlockEnd
  0
BLOCK
  5
1F7
330
1F4
100
AcDbEntity
  8
0
100
AcDbBlockBegin
  2
PART_TOP_56
 70
     0
 10
0.0
 20
0.0
 30
0.0
  3
PART_TOP_56
  1

  0
INSERT
  5
1F5
330
1F4
100
AcDbEntity
  8
0
  6
CONTINUOUS
 62
     7
100
AcDbBlockReference
  2

 10
0.0
 20
0.0
 30
0.0
  0
INSERT
  5
1F6
330
1F4
100
AcDbEntity
  8
0
  6
CONTINUOUS
 62
     7
100
AcDbBlockReference
  2

 10
0.0
 20
0.0
 30
0.0
  0
ENDBLK
  5
1F8
330
1F4
100
AcDbEntity
  8
0
100
AcDbBlockEnd
  0
BLOCK
  5
1FD
330
1F9
100
AcDbEntity
  8
0
100
AcDbBlockBegin
  2
SYM_TOP_13
 70
     0
 10
0.0
 20
0.0
 30
0.0
  3
SYM_TOP_13
  1

  0
INSERT
  5
1FA
330
1F9
100
AcDbEntity
  8
0
  6
CONTINUOUS
 62
     7
100
AcDbBlockReference
  2

 10
0.0
 20
0.0
 30
0.0
  0
INSERT
  5
1FB
330
1F9
100
AcDbEntity
  8
0
  6
CONTINUOUS
 62
     7
100
AcDbBlockReference
  2

 10
0.0
 20
0.0
 30
0.0
  0
INSERT
  5
1FC
330
1F9
100
AcDbEntity
  8
0
  6
CONTINUOUS
 62
     7
100
AcDbBlockReference
  2

 10
64.516000065806
 20
0.0
 30
0.0
  0
ENDBLK
  5
1FE
330
1F9
100
AcDbEntity
  8
0
100
AcDbBlockEnd
  0
BLOCK
  5
200
330
1FF
100
AcDbEntity
  8
0
100
AcDbBlockBegin
  2
PKG_0
 70
     0
 10
0.0
 20
0.0
 30
0.0
  3
PKG_0
  1

  0
ENDBLK
  5
201
330
1FF
100
AcDbEntity
  8
0
100
AcDbBlockEnd
  0
BLOCK
  5
205
330
202
100
AcDbEntity
  8
0
100
AcDbBlockBegin
  2
SYM_TOP_14
 70
     0
 10
0.0
 20
0.0
 30
0.0
  3
SYM_TOP_14
  1

  0
INSERT
  5
203
330
202
100
AcDbEntity
  8
0
  6
CONTINUOUS
 62
     7
100
AcDbBlockReference
  2

 10
0.0
 20
0.0
 30
0.0
  0
INSERT
  5
204
330
202
100
AcDbEntity
  8
0
  6
CONTINUOUS
 62
     7
100
AcDbBlockReference
  2

 10
0.0
 20
0.0
 30
0.0
  0
ENDBLK
  5
206
330
202
100
AcDbEntity
  8
0
100
AcDbBlockEnd
  0
BLOCK
  5
208
330
207
100
AcDbEntity
  8
0
100
AcDbBlockBegin
  2
PKG_1
 70
     0
 10
0.0
 20
0.0
 30
0.0
  3
PKG_1
  1

  0
ENDBLK
  5
209
330
207
100
AcDbEntity
  8
0
100
AcDbBlockEnd
  0
BLOCK
  5
20E
330
20A
100
AcDbEntity
  8
0
100
AcDbBlockBegin
  2
SYM_TOP_15
 70
     0
 10
0.0
 20
0.0
 30
0.0
  3
SYM_TOP_15
  1

  0
INSERT
  5
20B
330
20A
100
AcDbEntity
  8
0
  6
CONTINUOUS
 62
     7
100
AcDbBlockReference
  2

 10
0.0
 20
0.0
 30
0.0
  0
INSERT
  5
20C
330
20A
100
AcDbEntity
  8
0
  6
CONTINUOUS
 62
     7
100
AcDbBlockReference
  2

 10
-20.320000020726
 20
0.0
 30
0.0
  0
INSERT
  5
20D
330
20A
100
AcDbEntity
  8
0
  6
CONTINUOUS
 62
     7
100
AcDbBlockReference
  2

 10
20.320000020726
 20
0.0
 30
0.0
  0
ENDBLK
  5
20F
330
20A
100
AcDbEntity
  8
0
100
AcDbBlockEnd
  0
BLOCK
  5
211
330
210
100
AcDbEntity
  8
0
100
AcDbBlockBegin
  2
PKG_2
 70
     0
 10
0.0
 20
0.0
 30
0.0
  3
PKG_2
  1

  0
ENDBLK
  5
212
330
210
100
AcDbEntity
  8
0
100
AcDbBlockEnd
  0
BLOCK
  5
217
330
213
100
AcDbEntity
  8
0
100
AcDbBlockBegin
  2
SYM_TOP_16
 70
     0
 10
0.0
 20
0.0
 30
0.0
  3
SYM_TOP_16
  1

  0
INSERT
  5
214
330
213
100
AcDbEntity
  8
0
  6
CONTINUOUS
 62
     7
100
AcDbBlockReference
  2

 10
0.0
 20
0.0
 30
0.0
  0
INSERT
  5
215
330
213
100
AcDbEntity
  8
0
  6
CONTINUOUS
 62
     7
100
AcDbBlockReference
  2

 10
-44.450000045339
 20
0.0
 30
0.0
  0
INSERT
  5
216
330
213
100
AcDbEntity
  8
0
  6
CONTINUOUS
 62
     7
100
AcDbBlockReference
  2

 10
44.450000045339
 20
0.0
 30
0.0
  0
ENDBLK
  5
218
330
213
100
AcDbEntity
  8
0
100
AcDbBlockEnd
  0
BLOCK
  5
21A
330
219
100
AcDbEntity
  8
0
100
AcDbBlockBegin
  2
PKG_3
 70
     0
 10
0.0
 20
0.0
 30
0.0
  3
PKG_3
  1

  0
ENDBLK
  5
21B
330
219
100
AcDbEntity
  8
0
100
AcDbBlockEnd
  0
BLOCK
  5
220
330
21C
100
AcDbEntity
  8
0
100
AcDbBlockBegin
  2
SYM_TOP_18
 70
     0
 10
0.0
 20
0.0
 30
0.0
  3
SYM_TOP_18
  1

  0
INSERT
  5
21D
330
21C
100
AcDbEntity
  8
0
  6
CONTINUOUS
 62
     7
100
AcDbBlockReference
  2

 10
0.0
 20
0.0
 30
0.0
  0
INSERT
  5
21E
330
21C
100
AcDbEntity
  8
0
  6
CONTINUOUS
 62
     7
100
AcDbBlockReference
  2

 10
0.0
 20
-78.740000080315
 30
0.0
  0
INSERT
  5
21F
330
21C
100
AcDbEntity
  8
0
  6
CONTINUOUS
 62
     7
100
AcDbBlockReference
  2

 10
0.0
 20
78.740000080315
 30
0.0
  0
ENDBLK
  5
221
330
21C
100
AcDbEntity
  8
0
100
AcDbBlockEnd
  0
BLOCK
  5
223
330
222
100
AcDbEntity
  8
0
100
AcDbBlockBegin
  2
PKG_4
 70
     0
 10
0.0
 20
0.0
 30
0.0
  3
PKG_4
  1

  0
ENDBLK
  5
224
330
222
100
AcDbEntity
  8
0
100
AcDbBlockEnd
  0
BLOCK
  5
229
330
225
100
AcDbEntity
  8
0
100
AcDbBlockBegin
  2
SYM_TOP_19
 70
     0
 10
0.0
 20
0.0
 30
0.0
  3
SYM_TOP_19
  1

  0
INSERT
  5
226
330
225
100
AcDbEntity
  8
0
  6
CONTINUOUS
 62
     7
100
AcDbBlockReference
  2

 10
0.0
 20
0.0
 30
0.0
  0
INSERT
  5
227
330
225
100
AcDbEntity
  8
0
  6
CONTINUOUS
 62
     7
100
AcDbBlockReference
  2

 10
-20.320000020726
 20
0.0
 30
0.0
  0
INSERT
  5
228
330
225
100
AcDbEntity
  8
0
  6
CONTINUOUS
 62
     7
100
AcDbBlockReference
  2

 10
20.320000020726
 20
0.0
 30
0.0
  0
ENDBLK
  5
22A
330
225
100
AcDbEntity
  8
0
100
AcDbBlockEnd
  0
BLOCK
  5
22C
330
22B
100
AcDbEntity
  8
0
100
AcDbBlockBegin
  2
PKG_5
 70
     0
 10
0.0
 20
0.0
 30
0.0
  3
PKG_5
  1

  0
ENDBLK
  5
22D
330
22B
100
AcDbEntity
  8
0
100
AcDbBlockEnd
  0
BLOCK
  5
22F
330
22E
100
AcDbEntity
  8
0
100
AcDbBlockBegin
  2
PKG_6
 70
     0
 10
0.0
 20
0.0
 30
0.0
  3
PKG_6
  1

  0
ENDBLK
  5
230
330
22E
100
AcDbEntity
  8
0
100
AcDbBlockEnd
  0
BLOCK
  5
237
330
231
100
AcDbEntity
  8
0
100
AcDbBlockBegin
  2
SYM_TOP_20
 70
     0
 10
0.0
 20
0.0
 30
0.0
  3
SYM_TOP_20
  1

  0
INSERT
  5
232
330
231
100
AcDbEntity
  8
0
  6
CONTINUOUS
 62
     7
100
AcDbBlockReference
  2

 10
0.0
 20
0.0
 30
0.0
  0
INSERT
  5
233
330
231
100
AcDbEntity
  8
0
  6
CONTINUOUS
 62
     7
100
AcDbBlockReference
  2

 10
-127.00000012954
 20
-203.200000207264
 30
0.0
  0
INSERT
  5
234
330
231
100
AcDbEntity
  8
0
  6
CONTINUOUS
 62
     7
100
AcDbBlockReference
  2

 10
127.00000012954
 20
-203.200000207264
 30
0.0
  0
INSERT
  5
235
330
231
100
AcDbEntity
  8
0
  6
CONTINUOUS
 62
     7
100
AcDbBlockReference
  2

 10
0.0
 20
114.300000116586
 30
0.0
  0
INSERT
  5
236
330
231
100
AcDbEntity
  8
0
  6
CONTINUOUS
 62
     7
100
AcDbBlockReference
  2

 10
0.0
 20
0.0
 30
0.0
  0
ENDBLK
  5
238
330
231
100
AcDbEntity
  8
0
100
AcDbBlockEnd
  0
BLOCK
  5
23A
330
239
100
AcDbEntity
  8
0
100
AcDbBlockBegin
  2
PKG_8
 70
     0
 10
0.0
 20
0.0
 30
0.0
  3
PKG_8
  1

  0
ENDBLK
  5
23B
330
239
100
AcDbEntity
  8
0
100
AcDbBlockEnd
  0
BLOCK
  5
246
330
23C
100
AcDbEntity
  8
0
100
AcDbBlockBegin
  2
SYM_TOP_21
 70
     0
 10
0.0
 20
0.0
 30
0.0
  3
SYM_TOP_21
  1

  0
INSERT
  5
23D
330
23C
100
AcDbEntity
  8
0
  6
CONTINUOUS
 62
     7
100
AcDbBlockReference
  2

 10
0.0
 20
0.0
 30
0.0
  0
INSERT
  5
23E
330
23C
100
AcDbEntity
  8
0
  6
CONTINUOUS
 62
     7
100
AcDbBlockReference
  2

 10
-48.387000049355
 20
-76.200000077724
 30
0.0
  0
INSERT
  5
23F
330
23C
100
AcDbEntity
  8
0
  6
CONTINUOUS
 62
     7
100
AcDbBlockReference
  2

 10
-16.129000016452
 20
-76.200000077724
 30
0.0
  0
INSERT
  5
240
330
23C
100
AcDbEntity
  8
0
  6
CONTINUOUS
 62
     7
100
AcDbBlockReference
  2

 10
16.129000016452
 20
-76.200000077724
 30
0.0
  0
INSERT
  5
241
330
23C
100
AcDbEntity
  8
0
  6
CONTINUOUS
 62
     7
100
AcDbBlockReference
  2

 10
48.387000049355
 20
-76.200000077724
 30
0.0
  0
INSERT
  5
242
330
23C
100
AcDbEntity
  8
0
  6
CONTINUOUS
 62
     7
100
AcDbBlockReference
  2

 10
48.387000049355
 20
76.200000077724
 30
0.0
  0
INSERT
  5
243
330
23C
100
AcDbEntity
  8
0
  6
CONTINUOUS
 62
     7
100
AcDbBlockReference
  2

 10
16.129000016452
 20
76.200000077724
 30
0.0
  0
INSERT
  5
244
330
23C
100
AcDbEntity
  8
0
  6
CONTINUOUS
 62
     7
100
AcDbBlockReference
  2

 10
-16.129000016452
 20
76.200000077724
 30
0.0
  0
INSERT
  5
245
330
23C
100
AcDbEntity
  8
0
  6
CONTINUOUS
 62
     7
100
AcDbBlockReference
  2

 10
-48.387000049355
 20
76.200000077724
 30
0.0
  0
ENDBLK
  5
247
330
23C
100
AcDbEntity
  8
0
100
AcDbBlockEnd
  0
BLOCK
  5
249
330
248
100
AcDbEntity
  8
0
100
AcDbBlockBegin
  2
PKG_9
 70
     0
 10
0.0
 20
0.0
 30
0.0
  3
PKG_9
  1

  0
ENDBLK
  5
24A
330
248
100
AcDbEntity
  8
0
100
AcDbBlockEnd
  0
BLOCK
  5
255
330
24B
100
AcDbEntity
  8
0
100
AcDbBlockBegin
  2
SYM_TOP_22
 70
     0
 10
0.0
 20
0.0
 30
0.0
  3
SYM_TOP_22
  1

  0
INSERT
  5
24C
330
24B
100
AcDbEntity
  8
0
  6
CONTINUOUS
 62
     7
100
AcDbBlockReference
  2

 10
0.0
 20
0.0
 30
0.0
  0
INSERT
  5
24D
330
24B
100
AcDbEntity
  8
0
  6
CONTINUOUS
 62
     7
100
AcDbBlockReference
  2

 10
-63.50000006477
 20
34.290000034976
 30
0.0
  0
INSERT
  5
24E
330
24B
100
AcDbEntity
  8
0
  6
CONTINUOUS
 62
     7
100
AcDbBlockReference
  2

 10
-38.100000038862
 20
34.290000034976
 30
0.0
  0
INSERT
  5
24F
330
24B
100
AcDbEntity
  8
0
  6
CONTINUOUS
 62
     7
100
AcDbBlockReference
  2

 10
-12.700000012954
 20
34.290000034976
 30
0.0
  0
INSERT
  5
250
330
24B
100
AcDbEntity
  8
0
  6
CONTINUOUS
 62
     7
100
AcDbBlockReference
  2

 10
12.700000012954
 20
34.290000034976
 30
0.0
  0
INSERT
  5
251
330
24B
100
AcDbEntity
  8
0
  6
CONTINUOUS
 62
     7
100
AcDbBlockReference
  2

 10
38.100000038862
 20
34.290000034976
 30
0.0
  0
INSERT
  5
252
330
24B
100
AcDbEntity
  8
0
  6
CONTINUOUS
 62
     7
100
AcDbBlockReference
  2

 10
63.50000006477
 20
34.290000034976
 30
0.0
  0
INSERT
  5
253
330
24B
100
AcDbEntity
  8
0
  6
CONTINUOUS
 62
     7
100
AcDbBlockReference
  2

 10
143.51000014638
 20
-25.400000025908
 30
0.0
  0
INSERT
  5
254
330
24B
100
AcDbEntity
  8
0
  6
CONTINUOUS
 62
     7
100
AcDbBlockReference
  2

 10
-143.51000014638
 20
-25.400000025908
 30
0.0
  0
ENDBLK
  5
256
330
24B
100
AcDbEntity
  8
0
100
AcDbBlockEnd
  0
BLOCK
  5
258
330
257
100
AcDbEntity
  8
0
100
AcDbBlockBegin
  2
PKG_10
 70
     0
 10
0.0
 20
0.0
 30
0.0
  3
PKG_10
  1

  0
ENDBLK
  5
259
330
257
100
AcDbEntity
  8
0
100
AcDbBlockEnd
  0
BLOCK
  5
25E
330
25A
100
AcDbEntity
  8
0
100
AcDbBlockBegin
  2
SYM_TOP_23
 70
     0
 10
0.0
 20
0.0
 30
0.0
  3
SYM_TOP_23
  1

  0
INSERT
  5
25B
330
25A
100
AcDbEntity
  8
0
  6
CONTINUOUS
 62
     7
100
AcDbBlockReference
  2

 10
0.0
 20
0.0
 30
0.0
  0
INSERT
  5
25C
330
25A
100
AcDbEntity
  8
0
  6
CONTINUOUS
 62
     7
100
AcDbBlockReference
  2

 10
-63.503048064773
 20
0.0
 30
0.0
  0
INSERT
  5
25D
330
25A
100
AcDbEntity
  8
0
  6
CONTINUOUS
 62
     7
100
AcDbBlockReference
  2

 10
63.503048064773
 20
0.0
 30
0.0
  0
ENDBLK
  5
25F
330
25A
100
AcDbEntity
  8
0
100
AcDbBlockEnd
  0
BLOCK
  5
261
330
260
100
AcDbEntity
  8
0
100
AcDbBlockBegin
  2
PKG_11
 70
     0
 10
0.0
 20
0.0
 30
0.0
  3
PKG_11
  1

  0
ENDBLK
  5
262
330
260
100
AcDbEntity
  8
0
100
AcDbBlockEnd
  0
BLOCK
  5
267
330
263
100
AcDbEntity
  8
0
100
AcDbBlockBegin
  2
SYM_TOP_24
 70
     0
 10
0.0
 20
0.0
 30
0.0
  3
SYM_TOP_24
  1

  0
INSERT
  5
264
330
263
100
AcDbEntity
  8
0
  6
CONTINUOUS
 62
     7
100
AcDbBlockReference
  2

 10
0.0
 20
0.0
 30
0.0
  0
INSERT
  5
265
330
263
100
AcDbEntity
  8
0
  6
CONTINUOUS
 62
     7
100
AcDbBlockReference
  2

 10
-66.040000067361
 20
0.0
 30
0.0
  0
INSERT
  5
266
330
263
100
AcDbEntity
  8
0
  6
CONTINUOUS
 62
     7
100
AcDbBlockReference
  2

 10
66.040000067361
 20
0.0
 30
0.0
  0
ENDBLK
  5
268
330
263
100
AcDbEntity
  8
0
100
AcDbBlockEnd
  0
BLOCK
  5
26A
330
269
100
AcDbEntity
  8
0
100
AcDbBlockBegin
  2
PKG_12
 70
     0
 10
0.0
 20
0.0
 30
0.0
  3
PKG_12
  1

  0
ENDBLK
  5
26B
330
269
100
AcDbEntity
  8
0
100
AcDbBlockEnd
  0
BLOCK
  5
26F
330
26C
100
AcDbEntity
  8
0
100
AcDbBlockBegin
  2
SYM_TOP_26
 70
     0
 10
0.0
 20
0.0
 30
0.0
  3
SYM_TOP_26
  1

  0
INSERT
  5
26D
330
26C
100
AcDbEntity
  8
0
  6
CONTINUOUS
 62
     7
100
AcDbBlockReference
  2

 10
0.0
 20
0.0
 30
0.0
  0
INSERT
  5
26E
330
26C
100
AcDbEntity
  8
0
  6
CONTINUOUS
 62
     7
100
AcDbBlockReference
  2

 10
0.0
 20
0.0
 30
0.0
  0
ENDBLK
  5
270
330
26C
100
AcDbEntity
  8
0
100
AcDbBlockEnd
  0
BLOCK
  5
272
330
271
100
AcDbEntity
  8
0
100
AcDbBlockBegin
  2
PKG_13
 70
     0
 10
0.0
 20
0.0
 30
0.0
  3
PKG_13
  1

  0
ENDBLK
  5
273
330
271
100
AcDbEntity
  8
0
100
AcDbBlockEnd
  0
BLOCK
  5
279
330
274
100
AcDbEntity
  8
0
100
AcDbBlockBegin
  2
SYM_TOP_27
 70
     0
 10
0.0
 20
0.0
 30
0.0
  3
SYM_TOP_27
  1

  0
INSERT
  5
275
330
274
100
AcDbEntity
  8
0
  6
CONTINUOUS
 62
     7
100
AcDbBlockReference
  2

 10
0.0
 20
0.0
 30
0.0
  0
INSERT
  5
276
330
274
100
AcDbEntity
  8
0
  6
CONTINUOUS
 62
     7
100
AcDbBlockReference
  2

 10
-32.258000032903
 20
0.0
 30
0.0
  0
INSERT
  5
277
330
274
100
AcDbEntity
  8
0
  6
CONTINUOUS
 62
     7
100
AcDbBlockReference
  2

 10
0.0
 20
0.0
 30
0.0
  0
INSERT
  5
278
330
274
100
AcDbEntity
  8
0
  6
CONTINUOUS
 62
     7
100
AcDbBlockReference
  2

 10
32.258000032903
 20
0.0
 30
0.0
  0
ENDBLK
  5
27A
330
274
100
AcDbEntity
  8
0
100
AcDbBlockEnd
  0
BLOCK
  5
27C
330
27B
100
AcDbEntity
  8
0
100
AcDbBlockBegin
  2
PKG_14
 70
     0
 10
0.0
 20
0.0
 30
0.0
  3
PKG_14
  1

  0
ENDBLK
  5
27D
330
27B
100
AcDbEntity
  8
0
100
AcDbBlockEnd
  0
BLOCK
  5
282
330
27E
100
AcDbEntity
  8
0
100
AcDbBlockBegin
  2
SYM_TOP_28
 70
     0
 10
0.0
 20
0.0
 30
0.0
  3
SYM_TOP_28
  1

  0
INSERT
  5
27F
330
27E
100
AcDbEntity
  8
0
  6
CONTINUOUS
 62
     7
100
AcDbBlockReference
  2

 10
0.0
 20
0.0
 30
0.0
  0
INSERT
  5
280
330
27E
100
AcDbEntity
  8
0
  6
CONTINUOUS
 62
     7
100
AcDbBlockReference
  2

 10
-32.258000032903
 20
0.0
 30
0.0
  0
INSERT
  5
281
330
27E
100
AcDbEntity
  8
0
  6
CONTINUOUS
 62
     7
100
AcDbBlockReference
  2

 10
32.258000032903
 20
0.0
 30
0.0
  0
ENDBLK
  5
283
330
27E
100
AcDbEntity
  8
0
100
AcDbBlockEnd
  0
BLOCK
  5
285
330
284
100
AcDbEntity
  8
0
100
AcDbBlockBegin
  2
PKG_15
 70
     0
 10
0.0
 20
0.0
 30
0.0
  3
PKG_15
  1

  0
ENDBLK
  5
286
330
284
100
AcDbEntity
  8
0
100
AcDbBlockEnd
  0
BLOCK
  5
28E
330
287
100
AcDbEntity
  8
0
100
AcDbBlockBegin
  2
SYM_TOP_29
 70
     0
 10
0.0
 20
0.0
 30
0.0
  3
SYM_TOP_29
  1

  0
INSERT
  5
288
330
287
100
AcDbEntity
  8
0
  6
CONTINUOUS
 62
     7
100
AcDbBlockReference
  2

 10
0.0
 20
0.0
 30
0.0
  0
INSERT
  5
289
330
287
100
AcDbEntity
  8
0
  6
CONTINUOUS
 62
     7
100
AcDbBlockReference
  2

 10
-24.130000024613
 20
-33.02000003368
 30
0.0
  0
INSERT
  5
28A
330
287
100
AcDbEntity
  8
0
  6
CONTINUOUS
 62
     7
100
AcDbBlockReference
  2

 10
0.0
 20
-33.02000003368
 30
0.0
  0
INSERT
  5
28B
330
287
100
AcDbEntity
  8
0
  6
CONTINUOUS
 62
     7
100
AcDbBlockReference
  2

 10
24.130000024613
 20
-33.02000003368
 30
0.0
  0
INSERT
  5
28C
330
287
100
AcDbEntity
  8
0
  6
CONTINUOUS
 62
     7
100
AcDbBlockReference
  2

 10
24.130000024613
 20
33.02000003368
 30
0.0
  0
INSERT
  5
28D
330
287
100
AcDbEntity
  8
0
  6
CONTINUOUS
 62
     7
100
AcDbBlockReference
  2

 10
-24.130000024613
 20
33.02000003368
 30
0.0
  0
ENDBLK
  5
28F
330
287
100
AcDbEntity
  8
0
100
AcDbBlockEnd
  0
BLOCK
  5
291
330
290
100
AcDbEntity
  8
0
100
AcDbBlockBegin
  2
PKG_16
 70
     0
 10
0.0
 20
0.0
 30
0.0
  3
PKG_16
  1

  0
ENDBLK
  5
292
330
290
100
AcDbEntity
  8
0
100
AcDbBlockEnd
  0
BLOCK
  5
294
330
293
100
AcDbEntity
  8
0
100
AcDbBlockBegin
  2
PKG_17
 70
     0
 10
0.0
 20
0.0
 30
0.0
  3
PKG_17
  1

  0
ENDBLK
  5
295
330
293
100
AcDbEntity
  8
0
100
AcDbBlockEnd
  0
BLOCK
  5
297
330
296
100
AcDbEntity
  8
0
100
AcDbBlockBegin
  2
PKG_7
 70
     0
 10
0.0
 20
0.0
 30
0.0
  3
PKG_7
  1

  0
ENDBLK
  5
298
330
296
100
AcDbEntity
  8
0
100
AcDbBlockEnd
  0
BLOCK
  5
29A
330
299
100
AcDbEntity
  8
0
100
AcDbBlockBegin
  2
PKG_18
 70
     0
 10
0.0
 20
0.0
 30
0.0
  3
PKG_18
  1

  0
ENDBLK
  5
29B
330
299
100
AcDbEntity
  8
0
100
AcDbBlockEnd
  0
BLOCK
  5
2A0
330
29C
100
AcDbEntity
  8
0
100
AcDbBlockBegin
  2
SYM_TOP_30
 70
     0
 10
0.0
 20
0.0
 30
0.0
  3
SYM_TOP_30
  1

  0
INSERT
  5
29D
330
29C
100
AcDbEntity
  8
0
  6
CONTINUOUS
 62
     7
100
AcDbBlockReference
  2

 10
0.0
 20
0.0
 30
0.0
  0
INSERT
  5
29E
330
29C
100
AcDbEntity
  8
0
  6
CONTINUOUS
 62
     7
100
AcDbBlockReference
  2

 10
-88.900000090678
 20
0.0
 30
0.0
  0
INSERT
  5
29F
330
29C
100
AcDbEntity
  8
0
  6
CONTINUOUS
 62
     7
100
AcDbBlockReference
  2

 10
88.900000090678
 20
0.0
 30
0.0
  0
ENDBLK
  5
2A1
330
29C
100
AcDbEntity
  8
0
100
AcDbBlockEnd
  0
BLOCK
  5
2A3
330
2A2
100
AcDbEntity
  8
0
100
AcDbBlockBegin
  2
PKG_19
 70
     0
 10
0.0
 20
0.0
 30
0.0
  3
PKG_19
  1

  0
ENDBLK
  5
2A4
330
2A2
100
AcDbEntity
  8
0
100
AcDbBlockEnd
  0
BLOCK
  5
2AA
330
2A5
100
AcDbEntity
  8
0
100
AcDbBlockBegin
  2
SYM_TOP_31
 70
     0
 10
0.0
 20
0.0
 30
0.0
  3
SYM_TOP_31
  1

  0
INSERT
  5
2A6
330
2A5
100
AcDbEntity
  8
0
  6
CONTINUOUS
 62
     7
100
AcDbBlockReference
  2

 10
0.0
 20
0.0
 30
0.0
  0
INSERT
  5
2A7
330
2A5
100
AcDbEntity
  8
0
  6
CONTINUOUS
 62
     7
100
AcDbBlockReference
  2

 10
0.0
 20
0.0
 30
0.0
  0
INSERT
  5
2A8
330
2A5
100
AcDbEntity
  8
0
  6
CONTINUOUS
 62
     7
100
AcDbBlockReference
  2

 10
64.516000065806
 20
0.0
 30
0.0
  0
INSERT
  5
2A9
330
2A5
100
AcDbEntity
  8
0
  6
CONTINUOUS
 62
     7
100
AcDbBlockReference
  2

 10
129.032000131613
 20
0.0
 30
0.0
  0
ENDBLK
  5
2AB
330
2A5
100
AcDbEntity
  8
0
100
AcDbBlockEnd
  0
BLOCK
  5
2AD
330
2AC
100
AcDbEntity
  8
0
100
AcDbBlockBegin
  2
PKG_20
 70
     0
 10
0.0
 20
0.0
 30
0.0
  3
PKG_20
  1

  0
ENDBLK
  5
2AE
330
2AC
100
AcDbEntity
  8
0
100
AcDbBlockEnd
  0
BLOCK
  5
2B4
330
2AF
100
AcDbEntity
  8
0
100
AcDbBlockBegin
  2
SYM_TOP_32
 70
     0
 10
0.0
 20
0.0
 30
0.0
  3
SYM_TOP_32
  1

  0
INSERT
  5
2B0
330
2AF
100
AcDbEntity
  8
0
  6
CONTINUOUS
 62
     7
100
AcDbBlockReference
  2

 10
0.0
 20
0.0
 30
0.0
  0
INSERT
  5
2B1
330
2AF
100
AcDbEntity
  8
0
  6
CONTINUOUS
 62
     7
100
AcDbBlockReference
  2

 10
-50.800000051816
 20
0.0
 30
0.0
  0
INSERT
  5
2B2
330
2AF
100
AcDbEntity
  8
0
  6
CONTINUOUS
 62
     7
100
AcDbBlockReference
  2

 10
0.0
 20
0.0
 30
0.0
  0
INSERT
  5
2B3
330
2AF
100
AcDbEntity
  8
0
  6
CONTINUOUS
 62
     7
100
AcDbBlockReference
  2

 10
50.800000051816
 20
0.0
 30
0.0
  0
ENDBLK
  5
2B5
330
2AF
100
AcDbEntity
  8
0
100
AcDbBlockEnd
  0
BLOCK
  5
2B7
330
2B6
100
AcDbEntity
  8
0
100
AcDbBlockBegin
  2
PKG_21
 70
     0
 10
0.0
 20
0.0
 30
0.0
  3
PKG_21
  1

  0
ENDBLK
  5
2B8
330
2B6
100
AcDbEntity
  8
0
100
AcDbBlockEnd
  0
BLOCK
  5
2BA
330
2B9
100
AcDbEntity
  8
0
100
AcDbBlockBegin
  2
PKG_22
 70
     0
 10
0.0
 20
0.0
 30
0.0
  3
PKG_22
  1

  0
ENDBLK
  5
2BB
330
2B9
100
AcDbEntity
  8
0
100
AcDbBlockEnd
  0
BLOCK
  5
2C0
330
2BC
100
AcDbEntity
  8
0
100
AcDbBlockBegin
  2
SYM_TOP_33
 70
     0
 10
0.0
 20
0.0
 30
0.0
  3
SYM_TOP_33
  1

  0
INSERT
  5
2BD
330
2BC
100
AcDbEntity
  8
0
  6
CONTINUOUS
 62
     7
100
AcDbBlockReference
  2

 10
0.0
 20
0.0
 30
0.0
  0
INSERT
  5
2BE
330
2BC
100
AcDbEntity
  8
0
  6
CONTINUOUS
 62
     7
100
AcDbBlockReference
  2

 10
-32.258000032903
 20
0.0
 30
0.0
  0
INSERT
  5
2BF
330
2BC
100
AcDbEntity
  8
0
  6
CONTINUOUS
 62
     7
100
AcDbBlockReference
  2

 10
32.258000032903
 20
0.0
 30
0.0
  0
ENDBLK
  5
2C1
330
2BC
100
AcDbEntity
  8
0
100
AcDbBlockEnd
  0
BLOCK
  5
2C3
330
2C2
100
AcDbEntity
  8
0
100
AcDbBlockBegin
  2
PKG_23
 70
     0
 10
0.0
 20
0.0
 30
0.0
  3
PKG_23
  1

  0
ENDBLK
  5
2C4
330
2C2
100
AcDbEntity
  8
0
100
AcDbBlockEnd
  0
BLOCK
  5
2C6
330
2C5
100
AcDbEntity
  8
0
100
AcDbBlockBegin
  2
PKG_24
 70
     0
 10
0.0
 20
0.0
 30
0.0
  3
PKG_24
  1

  0
ENDBLK
  5
2C7
330
2C5
100
AcDbEntity
  8
0
100
AcDbBlockEnd
  0
BLOCK
  5
2C9
330
2C8
100
AcDbEntity
  8
0
100
AcDbBlockBegin
  2
PART_BODY_TOP_20
 70
     0
 10
0.0
 20
0.0
 30
0.0
  3
PART_BODY_TOP_20
  1

  0
ENDBLK
  5
2CA
330
2C8
100
AcDbEntity
  8
0
100
AcDbBlockEnd
  0
BLOCK
  5
2CC
330
2CB
100
AcDbEntity
  8
0
100
AcDbBlockBegin
  2
STK_TOP_28
 70
     0
 10
0.0
 20
0.0
 30
0.0
  3
STK_TOP_28
  1

  0
ENDBLK
  5
2CD
330
2CB
100
AcDbEntity
  8
0
100
AcDbBlockEnd
  0
BLOCK
  5
2CF
330
2CE
100
AcDbEntity
  8
0
100
AcDbBlockBegin
  2
STK_TOP_29
 70
     0
 10
0.0
 20
0.0
 30
0.0
  3
STK_TOP_29
  1

  0
ENDBLK
  5
2D0
330
2CE
100
AcDbEntity
  8
0
100
AcDbBlockEnd
  0
BLOCK
  5
2D2
330
2D1
100
AcDbEntity
  8
0
100
AcDbBlockBegin
  2
PART_BODY_TOP_21
 70
     0
 10
0.0
 20
0.0
 30
0.0
  3
PART_BODY_TOP_21
  1

  0
ENDBLK
  5
2D3
330
2D1
100
AcDbEntity
  8
0
100
AcDbBlockEnd
  0
BLOCK
  5
2D5
330
2D4
100
AcDbEntity
  8
0
100
AcDbBlockBegin
  2
STK_TOP_32
 70
     0
 10
0.0
 20
0.0
 30
0.0
  3
STK_TOP_32
  1

  0
ENDBLK
  5
2D6
330
2D4
100
AcDbEntity
  8
0
100
AcDbBlockEnd
  0
BLOCK
  5
2D8
330
2D7
100
AcDbEntity
  8
0
100
AcDbBlockBegin
  2
PART_BODY_TOP_22
 70
     0
 10
0.0
 20
0.0
 30
0.0
  3
PART_BODY_TOP_22
  1

  0
ENDBLK
  5
2D9
330
2D7
100
AcDbEntity
  8
0
100
AcDbBlockEnd
  0
BLOCK
  5
2DB
330
2DA
100
AcDbEntity
  8
0
100
AcDbBlockBegin
  2
STK_TOP_37
 70
     0
 10
0.0
 20
0.0
 30
0.0
  3
STK_TOP_37
  1

  0
ENDBLK
  5
2DC
330
2DA
100
AcDbEntity
  8
0
100
AcDbBlockEnd
  0
BLOCK
  5
2DE
330
2DD
100
AcDbEntity
  8
0
100
AcDbBlockBegin
  2
PART_BODY_TOP_23
 70
     0
 10
0.0
 20
0.0
 30
0.0
  3
PART_BODY_TOP_23
  1

  0
ENDBLK
  5
2DF
330
2DD
100
AcDbEntity
  8
0
100
AcDbBlockEnd
  0
BLOCK
  5
2E1
330
2E0
100
AcDbEntity
  8
0
100
AcDbBlockBegin
  2
STK_TOP_38
 70
     0
 10
0.0
 20
0.0
 30
0.0
  3
STK_TOP_38
  1

  0
ENDBLK
  5
2E2
330
2E0
100
AcDbEntity
  8
0
100
AcDbBlockEnd
  0
BLOCK
  5
2E7
330
2E3
100
AcDbEntity
  8
0
100
AcDbBlockBegin
  2
SYM_TOP_17
 70
     0
 10
0.0
 20
0.0
 30
0.0
  3
SYM_TOP_17
  1

  0
INSERT
  5
2E4
330
2E3
100
AcDbEntity
  8
0
  6
CONTINUOUS
 62
     7
100
AcDbBlockReference
  2

 10
0.0
 20
0.0
 30
0.0
  0
INSERT
  5
2E5
330
2E3
100
AcDbEntity
  8
0
  6
CONTINUOUS
 62
     7
100
AcDbBlockReference
  2

 10
-44.450000045339
 20
0.0
 30
0.0
  0
INSERT
  5
2E6
330
2E3
100
AcDbEntity
  8
0
  6
CONTINUOUS
 62
     7
100
AcDbBlockReference
  2

 10
44.450000045339
 20
0.0
 30
0.0
  0
ENDBLK
  5
2E8
330
2E3
100
AcDbEntity
  8
0
100
AcDbBlockEnd
  0
BLOCK
  5
2EA
330
2E9
100
AcDbEntity
  8
0
100
AcDbBlockBegin
  2
PART_BODY_TOP_25
 70
     0
 10
0.0
 20
0.0
 30
0.0
  3
PART_BODY_TOP_25
  1

  0
ENDBLK
  5
2EB
330
2E9
100
AcDbEntity
  8
0
100
AcDbBlockEnd
  0
BLOCK
  5
2ED
330
2EC
100
AcDbEntity
  8
0
100
AcDbBlockBegin
  2
STK_TOP_40
 70
     0
 10
0.0
 20
0.0
 30
0.0
  3
STK_TOP_40
  1

  0
ENDBLK
  5
2EE
330
2EC
100
AcDbEntity
  8
0
100
AcDbBlockEnd
  0
BLOCK
  5
2F0
330
2EF
100
AcDbEntity
  8
0
100
AcDbBlockBegin
  2
PART_BODY_TOP_26
 70
     0
 10
0.0
 20
0.0
 30
0.0
  3
PART_BODY_TOP_26
  1

  0
ENDBLK
  5
2F1
330
2EF
100
AcDbEntity
  8
0
100
AcDbBlockEnd
  0
BLOCK
  5
2F3
330
2F2
100
AcDbEntity
  8
0
100
AcDbBlockBegin
  2
PART_BODY_TOP_27
 70
     0
 10
0.0
 20
0.0
 30
0.0
  3
PART_BODY_TOP_27
  1

  0
ENDBLK
  5
2F4
330
2F2
100
AcDbEntity
  8
0
100
AcDbBlockEnd
  0
BLOCK
  5
2F6
330
2F5
100
AcDbEntity
  8
0
100
AcDbBlockBegin
  2
STK_TOP_41
 70
     0
 10
0.0
 20
0.0
 30
0.0
  3
STK_TOP_41
  1

  0
ENDBLK
  5
2F7
330
2F5
100
AcDbEntity
  8
0
100
AcDbBlockEnd
  0
BLOCK
  5
2F9
330
2F8
100
AcDbEntity
  8
0
100
AcDbBlockBegin
  2
STK_TOP_42
 70
     0
 10
0.0
 20
0.0
 30
0.0
  3
STK_TOP_42
  1

  0
ENDBLK
  5
2FA
330
2F8
100
AcDbEntity
  8
0
100
AcDbBlockEnd
  0
BLOCK
  5
2FC
330
2FB
100
AcDbEntity
  8
0
100
AcDbBlockBegin
  2
PART_BODY_TOP_28
 70
     0
 10
0.0
 20
0.0
 30
0.0
  3
PART_BODY_TOP_28
  1

  0
ENDBLK
  5
2FD
330
2FB
100
AcDbEntity
  8
0
100
AcDbBlockEnd
  0
BLOCK
  5
2FF
330
2FE
100
AcDbEntity
  8
0
100
AcDbBlockBegin
  2
STK_TOP_43
 70
     0
 10
0.0
 20
0.0
 30
0.0
  3
STK_TOP_43
  1

  0
ENDBLK
  5
300
330
2FE
100
AcDbEntity
  8
0
100
AcDbBlockEnd
  0
BLOCK
  5
302
330
301
100
AcDbEntity
  8
0
100
AcDbBlockBegin
  2
PART_BODY_TOP_29
 70
     0
 10
0.0
 20
0.0
 30
0.0
  3
PART_BODY_TOP_29
  1

  0
ENDBLK
  5
303
330
301
100
AcDbEntity
  8
0
100
AcDbBlockEnd
  0
BLOCK
  5
305
330
304
100
AcDbEntity
  8
0
100
AcDbBlockBegin
  2
STK_TOP_44
 70
     0
 10
0.0
 20
0.0
 30
0.0
  3
STK_TOP_44
  1

  0
ENDBLK
  5
306
330
304
100
AcDbEntity
  8
0
100
AcDbBlockEnd
  0
BLOCK
  5
308
330
307
100
AcDbEntity
  8
0
100
AcDbBlockBegin
  2
STK_TOP_45
 70
     0
 10
0.0
 20
0.0
 30
0.0
  3
STK_TOP_45
  1

  0
ENDBLK
  5
309
330
307
100
AcDbEntity
  8
0
100
AcDbBlockEnd
  0
BLOCK
  5
30B
330
30A
100
AcDbEntity
  8
0
100
AcDbBlockBegin
  2
PART_BODY_TOP_30
 70
     0
 10
0.0
 20
0.0
 30
0.0
  3
PART_BODY_TOP_30
  1

  0
ENDBLK
  5
30C
330
30A
100
AcDbEntity
  8
0
100
AcDbBlockEnd
  0
BLOCK
  5
30E
330
30D
100
AcDbEntity
  8
0
100
AcDbBlockBegin
  2
STK_TOP_47
 70
     0
 10
0.0
 20
0.0
 30
0.0
  3
STK_TOP_47
  1

  0
ENDBLK
  5
30F
330
30D
100
AcDbEntity
  8
0
100
AcDbBlockEnd
  0
BLOCK
  5
311
330
310
100
AcDbEntity
  8
0
100
AcDbBlockBegin
  2
STK_TOP_46
 70
     0
 10
0.0
 20
0.0
 30
0.0
  3
STK_TOP_46
  1

  0
ENDBLK
  5
312
330
310
100
AcDbEntity
  8
0
100
AcDbBlockEnd
  0
BLOCK
  5
314
330
313
100
AcDbEntity
  8
0
100
AcDbBlockBegin
  2
PART_BODY_TOP_31
 70
     0
 10
0.0
 20
0.0
 30
0.0
  3
PART_BODY_TOP_31
  1

  0
ENDBLK
  5
315
330
313
100
AcDbEntity
  8
0
100
AcDbBlockEnd
  0
BLOCK
  5
317
330
316
100
AcDbEntity
  8
0
100
AcDbBlockBegin
  2
STK_TOP_48
 70
     0
 10
0.0
 20
0.0
 30
0.0
  3
STK_TOP_48
  1

  0
ENDBLK
  5
318
330
316
100
AcDbEntity
  8
0
100
AcDbBlockEnd
  0
BLOCK
  5
31D
330
319
100
AcDbEntity
  8
0
100
AcDbBlockBegin
  2
SYM_TOP_25
 70
     0
 10
0.0
 20
0.0
 30
0.0
  3
SYM_TOP_25
  1

  0
INSERT
  5
31A
330
319
100
AcDbEntity
  8
0
  6
CONTINUOUS
 62
     7
100
AcDbBlockReference
  2

 10
0.0
 20
0.0
 30
0.0
  0
INSERT
  5
31B
330
319
100
AcDbEntity
  8
0
  6
CONTINUOUS
 62
     7
100
AcDbBlockReference
  2

 10
-63.50000006477
 20
0.0
 30
0.0
  0
INSERT
  5
31C
330
319
100
AcDbEntity
  8
0
  6
CONTINUOUS
 62
     7
100
AcDbBlockReference
  2

 10
63.50000006477
 20
0.0
 30
0.0
  0
ENDBLK
  5
31E
330
319
100
AcDbEntity
  8
0
100
AcDbBlockEnd
  0
BLOCK
  5
320
330
31F
100
AcDbEntity
  8
0
100
AcDbBlockBegin
  2
PART_BODY_TOP_33
 70
     0
 10
0.0
 20
0.0
 30
0.0
  3
PART_BODY_TOP_33
  1

  0
ENDBLK
  5
321
330
31F
100
AcDbEntity
  8
0
100
AcDbBlockEnd
  0
BLOCK
  5
323
330
322
100
AcDbEntity
  8
0
100
AcDbBlockBegin
  2
STK_TOP_50
 70
     0
 10
0.0
 20
0.0
 30
0.0
  3
STK_TOP_50
  1

  0
ENDBLK
  5
324
330
322
100
AcDbEntity
  8
0
100
AcDbBlockEnd
  0
BLOCK
  5
326
330
325
100
AcDbEntity
  8
0
100
AcDbBlockBegin
  2
PART_BODY_TOP_34
 70
     0
 10
0.0
 20
0.0
 30
0.0
  3
PART_BODY_TOP_34
  1

  0
ENDBLK
  5
327
330
325
100
AcDbEntity
  8
0
100
AcDbBlockEnd
  0
BLOCK
  5
329
330
328
100
AcDbEntity
  8
0
100
AcDbBlockBegin
  2
STK_TOP_51
 70
     0
 10
0.0
 20
0.0
 30
0.0
  3
STK_TOP_51
  1

  0
ENDBLK
  5
32A
330
328
100
AcDbEntity
  8
0
100
AcDbBlockEnd
  0
BLOCK
  5
32C
330
32B
100
AcDbEntity
  8
0
100
AcDbBlockBegin
  2
PART_BODY_TOP_35
 70
     0
 10
0.0
 20
0.0
 30
0.0
  3
PART_BODY_TOP_35
  1

  0
ENDBLK
  5
32D
330
32B
100
AcDbEntity
  8
0
100
AcDbBlockEnd
  0
BLOCK
  5
32F
330
32E
100
AcDbEntity
  8
0
100
AcDbBlockBegin
  2
STK_TOP_25
 70
     0
 10
0.0
 20
0.0
 30
0.0
  3
STK_TOP_25
  1

  0
ENDBLK
  5
330
330
32E
100
AcDbEntity
  8
0
100
AcDbBlockEnd
  0
BLOCK
  5
332
330
331
100
AcDbEntity
  8
0
100
AcDbBlockBegin
  2
STK_TOP_24
 70
     0
 10
0.0
 20
0.0
 30
0.0
  3
STK_TOP_24
  1

  0
ENDBLK
  5
333
330
331
100
AcDbEntity
  8
0
100
AcDbBlockEnd
  0
BLOCK
  5
335
330
334
100
AcDbEntity
  8
0
100
AcDbBlockBegin
  2
PART_BODY_TOP_36
 70
     0
 10
0.0
 20
0.0
 30
0.0
  3
PART_BODY_TOP_36
  1

  0
ENDBLK
  5
336
330
334
100
AcDbEntity
  8
0
100
AcDbBlockEnd
  0
BLOCK
  5
338
330
337
100
AcDbEntity
  8
0
100
AcDbBlockBegin
  2
STK_TOP_52
 70
     0
 10
0.0
 20
0.0
 30
0.0
  3
STK_TOP_52
  1

  0
ENDBLK
  5
339
330
337
100
AcDbEntity
  8
0
100
AcDbBlockEnd
  0
BLOCK
  5
33B
330
33A
100
AcDbEntity
  8
0
100
AcDbBlockBegin
  2
PART_BODY_TOP_37
 70
     0
 10
0.0
 20
0.0
 30
0.0
  3
PART_BODY_TOP_37
  1

  0
ENDBLK
  5
33C
330
33A
100
AcDbEntity
  8
0
100
AcDbBlockEnd
  0
BLOCK
  5
33E
330
33D
100
AcDbEntity
  8
0
100
AcDbBlockBegin
  2
STK_TOP_53
 70
     0
 10
0.0
 20
0.0
 30
0.0
  3
STK_TOP_53
  1

  0
ENDBLK
  5
33F
330
33D
100
AcDbEntity
  8
0
100
AcDbBlockEnd
  0
BLOCK
  5
341
330
340
100
AcDbEntity
  8
0
100
AcDbBlockBegin
  2
PART_BODY_TOP_38
 70
     0
 10
0.0
 20
0.0
 30
0.0
  3
PART_BODY_TOP_38
  1

  0
ENDBLK
  5
342
330
340
100
AcDbEntity
  8
0
100
AcDbBlockEnd
  0
BLOCK
  5
344
330
343
100
AcDbEntity
  8
0
100
AcDbBlockBegin
  2
STK_TOP_54
 70
     0
 10
0.0
 20
0.0
 30
0.0
  3
STK_TOP_54
  1

  0
ENDBLK
  5
345
330
343
100
AcDbEntity
  8
0
100
AcDbBlockEnd
  0
BLOCK
  5
347
330
346
100
AcDbEntity
  8
0
100
AcDbBlockBegin
  2
PART_BODY_TOP_39
 70
     0
 10
0.0
 20
0.0
 30
0.0
  3
PART_BODY_TOP_39
  1

  0
ENDBLK
  5
348
330
346
100
AcDbEntity
  8
0
100
AcDbBlockEnd
  0
BLOCK
  5
34A
330
349
100
AcDbEntity
  8
0
100
AcDbBlockBegin
  2
STK_TOP_55
 70
     0
 10
0.0
 20
0.0
 30
0.0
  3
STK_TOP_55
  1

  0
ENDBLK
  5
34B
330
349
100
AcDbEntity
  8
0
100
AcDbBlockEnd
  0
BLOCK
  5
34D
330
34C
100
AcDbEntity
  8
0
100
AcDbBlockBegin
  2
PART_BODY_TOP_40
 70
     0
 10
0.0
 20
0.0
 30
0.0
  3
PART_BODY_TOP_40
  1

  0
ENDBLK
  5
34E
330
34C
100
AcDbEntity
  8
0
100
AcDbBlockEnd
  0
BLOCK
  5
350
330
34F
100
AcDbEntity
  8
0
100
AcDbBlockBegin
  2
STK_TOP_57
 70
     0
 10
0.0
 20
0.0
 30
0.0
  3
STK_TOP_57
  1

  0
ENDBLK
  5
351
330
34F
100
AcDbEntity
  8
0
100
AcDbBlockEnd
  0
BLOCK
  5
353
330
352
100
AcDbEntity
  8
0
100
AcDbBlockBegin
  2
STK_TOP_58
 70
     0
 10
0.0
 20
0.0
 30
0.0
  3
STK_TOP_58
  1

  0
ENDBLK
  5
354
330
352
100
AcDbEntity
  8
0
100
AcDbBlockEnd
  0
BLOCK
  5
359
330
355
100
AcDbEntity
  8
0
100
AcDbBlockBegin
  2
SYM_TOP_34
 70
     0
 10
0.0
 20
0.0
 30
0.0
  3
SYM_TOP_34
  1

  0
INSERT
  5
356
330
355
100
AcDbEntity
  8
0
  6
CONTINUOUS
 62
     7
100
AcDbBlockReference
  2

 10
0.0
 20
0.0
 30
0.0
  0
INSERT
  5
357
330
355
100
AcDbEntity
  8
0
  6
CONTINUOUS
 62
     7
100
AcDbBlockReference
  2

 10
-32.258000032903
 20
0.0
 30
0.0
  0
INSERT
  5
358
330
355
100
AcDbEntity
  8
0
  6
CONTINUOUS
 62
     7
100
AcDbBlockReference
  2

 10
32.258000032903
 20
0.0
 30
0.0
  0
ENDBLK
  5
35A
330
355
100
AcDbEntity
  8
0
100
AcDbBlockEnd
  0
BLOCK
  5
35C
330
35B
100
AcDbEntity
  8
0
100
AcDbBlockBegin
  2
PART_BODY_TOP_24
 70
     0
 10
0.0
 20
0.0
 30
0.0
  3
PART_BODY_TOP_24
  1

  0
ENDBLK
  5
35D
330
35B
100
AcDbEntity
  8
0
100
AcDbBlockEnd
  0
BLOCK
  5
35F
330
35E
100
AcDbEntity
  8
0
100
AcDbBlockBegin
  2
STK_TOP_39
 70
     0
 10
0.0
 20
0.0
 30
0.0
  3
STK_TOP_39
  1

  0
ENDBLK
  5
360
330
35E
100
AcDbEntity
  8
0
100
AcDbBlockEnd
  0
BLOCK
  5
362
330
361
100
AcDbEntity
  8
0
100
AcDbBlockBegin
  2
PART_BODY_TOP_32
 70
     0
 10
0.0
 20
0.0
 30
0.0
  3
PART_BODY_TOP_32
  1

  0
ENDBLK
  5
363
330
361
100
AcDbEntity
  8
0
100
AcDbBlockEnd
  0
BLOCK
  5
365
330
364
100
AcDbEntity
  8
0
100
AcDbBlockBegin
  2
STK_TOP_49
 70
     0
 10
0.0
 20
0.0
 30
0.0
  3
STK_TOP_49
  1

  0
ENDBLK
  5
366
330
364
100
AcDbEntity
  8
0
100
AcDbBlockEnd
  0
BLOCK
  5
368
330
367
100
AcDbEntity
  8
0
100
AcDbBlockBegin
  2
PART_BODY_TOP_41
 70
     0
 10
0.0
 20
0.0
 30
0.0
  3
PART_BODY_TOP_41
  1

  0
ENDBLK
  5
369
330
367
100
AcDbEntity
  8
0
100
AcDbBlockEnd
  0
BLOCK
  5
36B
330
36A
100
AcDbEntity
  8
0
100
AcDbBlockBegin
  2
STK_TOP_59
 70
     0
 10
0.0
 20
0.0
 30
0.0
  3
STK_TOP_59
  1

  0
ENDBLK
  5
36C
330
36A
100
AcDbEntity
  8
0
100
AcDbBlockEnd
  0
BLOCK
  5
36E
330
36D
100
AcDbEntity
  8
0
100
AcDbBlockBegin
  2
STK_TOP_60
 70
     0
 10
0.0
 20
0.0
 30
0.0
  3
STK_TOP_60
  1

  0
ENDBLK
  5
36F
330
36D
100
AcDbEntity
  8
0
100
AcDbBlockEnd
  0
BLOCK
  5
371
330
370
100
AcDbEntity
  8
0
100
AcDbBlockBegin
  2
PCB_PARAMS
 70
     0
 10
0.0
 20
0.0
 30
0.0
  3
PCB_PARAMS
  1

  0
ENDBLK
  5
372
330
370
100
AcDbEntity
  8
0
100
AcDbBlockEnd
  0
BLOCK
  5
374
330
373
100
AcDbEntity
  8
0
100
AcDbBlockBegin
  2
DRIL_SYMBOL_0$9
 70
     0
 10
0.0
 20
0.0
 30
0.0
  3
DRIL_SYMBOL_0$9
  1

  0
ENDBLK
  5
375
330
373
100
AcDbEntity
  8
0
100
AcDbBlockEnd
  0
BLOCK
  5
377
330
376
100
AcDbEntity
  8
0
100
AcDbBlockBegin
  2
DRIL_SYMBOL_1
 70
     0
 10
0.0
 20
0.0
 30
0.0
  3
DRIL_SYMBOL_1
  1

  0
ENDBLK
  5
378
330
376
100
AcDbEntity
  8
0
100
AcDbBlockEnd
  0
BLOCK
  5
37A
330
379
100
AcDbEntity
  8
0
100
AcDbBlockBegin
  2
DRIL_SYMBOL_2$2
 70
     0
 10
0.0
 20
0.0
 30
0.0
  3
DRIL_SYMBOL_2$2
  1

  0
ENDBLK
  5
37B
330
379
100
AcDbEntity
  8
0
100
AcDbBlockEnd
  0
BLOCK
  5
37D
330
37C
100
AcDbEntity
  8
0
100
AcDbBlockBegin
  2
DRIL_SYMBOL_0
 70
     0
 10
0.0
 20
0.0
 30
0.0
  3
DRIL_SYMBOL_0
  1

  0
ENDBLK
  5
37E
330
37C
100
AcDbEntity
  8
0
100
AcDbBlockEnd
  0
BLOCK
  5
380
330
37F
100
AcDbEntity
  8
0
100
AcDbBlockBegin
  2
DRIL_SYMBOL_0$6
 70
     0
 10
0.0
 20
0.0
 30
0.0
  3
DRIL_SYMBOL_0$6
  1

  0
ENDBLK
  5
381
330
37F
100
AcDbEntity
  8
0
100
AcDbBlockEnd
  0
BLOCK
  5
383
330
382
100
AcDbEntity
  8
0
100
AcDbBlockBegin
  2
DRIL_SYMBOL_1$3
 70
     0
 10
0.0
 20
0.0
 30
0.0
  3
DRIL_SYMBOL_1$3
  1

  0
ENDBLK
  5
384
330
382
100
AcDbEntity
  8
0
100
AcDbBlockEnd
  0
BLOCK
  5
386
330
385
100
AcDbEntity
  8
0
100
AcDbBlockBegin
  2
DRIL_SYMBOL_6$5
 70
     0
 10
0.0
 20
0.0
 30
0.0
  3
DRIL_SYMBOL_6$5
  1

  0
ENDBLK
  5
387
330
385
100
AcDbEntity
  8
0
100
AcDbBlockEnd
  0
BLOCK
  5
389
330
388
100
AcDbEntity
  8
0
100
AcDbBlockBegin
  2
DRIL_SYMBOL_0$7
 70
     0
 10
0.0
 20
0.0
 30
0.0
  3
DRIL_SYMBOL_0$7
  1

  0
ENDBLK
  5
38A
330
388
100
AcDbEntity
  8
0
100
AcDbBlockEnd
  0
BLOCK
  5
38C
330
38B
100
AcDbEntity
  8
0
100
AcDbBlockBegin
  2
DRIL_SYMBOL_0$8
 70
     0
 10
0.0
 20
0.0
 30
0.0
  3
DRIL_SYMBOL_0$8
  1

  0
ENDBLK
  5
38D
330
38B
100
AcDbEntity
  8
0
100
AcDbBlockEnd
  0
BLOCK
  5
38F
330
38E
100
AcDbEntity
  8
0
100
AcDbBlockBegin
  2
DRIL_SYMBOL_1$2
 70
     0
 10
0.0
 20
0.0
 30
0.0
  3
DRIL_SYMBOL_1$2
  1

  0
ENDBLK
  5
390
330
38E
100
AcDbEntity
  8
0
100
AcDbBlockEnd
  0
BLOCK
  5
394
330
391
100
AcDbEntity
  8
0
100
AcDbBlockBegin
  2
SMOOTH_0$0254
 70
     0
 10
0.0
 20
0.0
 30
0.0
  3
SMOOTH_0$0254
  1

  0
ARC
  5
392
330
391
100
AcDbEntity
  8
0
  6
CONTINUOUS
 62
     7
100
AcDbCircle
 10
0.0
 20
-0.000000213999
 30
0.0
 40
0.1612900001646577
100
AcDbArc
 50
179.999923980252
 51
359.999923980252
  0
ARC
  5
393
330
391
100
AcDbEntity
  8
0
  6
CONTINUOUS
 62
     7
100
AcDbCircle
 10
0.0
 20
0.000000213999
 30
0.0
 40
0.1612900001646577
100
AcDbArc
 50
359.999923980252
 51
179.999923980252
  0
ENDBLK
  5
395
330
391
100
AcDbEntity
  8
0
100
AcDbBlockEnd
  0
BLOCK
  5
399
330
396
100
AcDbEntity
  8
0
100
AcDbBlockBegin
  2
SMOOTH_0$15
 70
     0
 10
0.0
 20
0.0
 30
0.0
  3
SMOOTH_0$15
  1

  0
ARC
  5
397
330
396
100
AcDbEntity
  8
0
  6
CONTINUOUS
 62
     7
100
AcDbCircle
 10
0.0
 20
-0.000001263772
 30
0.0
 40
0.9525000009723884
100
AcDbArc
 50
179.999923980252
 51
359.999923980252
  0
ARC
  5
398
330
396
100
AcDbEntity
  8
0
  6
CONTINUOUS
 62
     7
100
AcDbCircle
 10
0.0
 20
0.000001263772
 30
0.0
 40
0.9525000009723883
100
AcDbArc
 50
359.999923980252
 51
179.999923980252
  0
ENDBLK
  5
39A
330
396
100
AcDbEntity
  8
0
100
AcDbBlockEnd
  0
BLOCK
  5
39E
330
39B
100
AcDbEntity
  8
0
100
AcDbBlockBegin
  2
SMOOTH_0$1
 70
     0
 10
0.0
 20
0.0
 30
0.0
  3
SMOOTH_0$1
  1

  0
ARC
  5
39C
330
39B
100
AcDbEntity
  8
0
  6
CONTINUOUS
 62
     7
100
AcDbCircle
 10
0.0
 20
-0.000000842515
 30
0.0
 40
0.6350000006482589
100
AcDbArc
 50
179.999923980252
 51
359.999923980252
  0
ARC
  5
39D
330
39B
100
AcDbEntity
  8
0
  6
CONTINUOUS
 62
     7
100
AcDbCircle
 10
0.0
 20
0.000000842515
 30
0.0
 40
0.6350000006482589
100
AcDbArc
 50
359.999923980252
 51
179.999923980252
  0
ENDBLK
  5
39F
330
39B
100
AcDbEntity
  8
0
100
AcDbBlockEnd
  0
BLOCK
  5
3A3
330
3A0
100
AcDbEntity
  8
0
100
AcDbBlockBegin
  2
SMOOTH_0$254
 70
     0
 10
0.0
 20
0.0
 30
0.0
  3
SMOOTH_0$254
  1

  0
ARC
  5
3A1
330
3A0
100
AcDbEntity
  8
0
  6
CONTINUOUS
 62
     7
100
AcDbCircle
 10
0.0
 20
-0.000002139987
 30
0.0
 40
1.612900001646578
100
AcDbArc
 50
179.999923980252
 51
359.999923980252
  0
ARC
  5
3A2
330
3A0
100
AcDbEntity
  8
0
  6
CONTINUOUS
 62
     7
100
AcDbCircle
 10
0.0
 20
0.000002139987
 30
0.0
 40
1.612900001646578
100
AcDbArc
 50
359.999923980252
 51
179.999923980252
  0
ENDBLK
  5
3A4
330
3A0
100
AcDbEntity
  8
0
100
AcDbBlockEnd
  0
BLOCK
  5
3A8
330
3A5
100
AcDbEntity
  8
0
100
AcDbBlockBegin
  2
SMOOTH_0$2
 70
     0
 10
0.0
 20
0.0
 30
0.0
  3
SMOOTH_0$2
  1

  0
ARC
  5
3A6
330
3A5
100
AcDbEntity
  8
0
  6
CONTINUOUS
 62
     7
100
AcDbCircle
 10
0.0
 20
-0.00000168503
 30
0.0
 40
1.270000001296518
100
AcDbArc
 50
179.999923980252
 51
359.999923980252
  0
ARC
  5
3A7
330
3A5
100
AcDbEntity
  8
0
  6
CONTINUOUS
 62
     7
100
AcDbCircle
 10
0.0
 20
0.00000168503
 30
0.0
 40
1.270000001296518
100
AcDbArc
 50
359.999923980252
 51
179.999923980252
  0
ENDBLK
  5
3A9
330
3A5
100
AcDbEntity
  8
0
100
AcDbBlockEnd
  0
BLOCK
  5
3AD
330
3AA
100
AcDbEntity
  8
0
100
AcDbBlockBegin
  2
PAD_0
 70
     0
 10
0.0
 20
0.0
 30
0.0
  3
PAD_0
  1

  0
ARC
  5
3AB
330
3AA
100
AcDbEntity
  8
0
  6
CONTINUOUS
 62
     7
100
AcDbCircle
 10
0.000014322751
 20
0.0
 30
0.0
 40
10.7950000110204
100
AcDbArc
 50
269.999923980252
 51
89.999923980252
  0
ARC
  5
3AC
330
3AA
100
AcDbEntity
  8
0
  6
CONTINUOUS
 62
     7
100
AcDbCircle
 10
-0.000014322751
 20
0.0
 30
0.0
 40
10.7950000110204
100
AcDbArc
 50
89.999923980252
 51
269.999923980252
  0
ENDBLK
  5
3AE
330
3AA
100
AcDbEntity
  8
0
100
AcDbBlockEnd
  0
BLOCK
  5
3B1
330
3AF
100
AcDbEntity
  8
0
100
AcDbBlockBegin
  2
PAD_1
 70
     0
 10
0.0
 20
0.0
 30
0.0
  3
PAD_1
  1

  0
LWPOLYLINE
  5
3B0
330
3AF
100
AcDbEntity
  8
0
  6
CONTINUOUS
 62
     7
100
AcDbPolyline
 90
        2
 70
     0
 43
0.0
 10
-21.590000022022
 20
0.0
 10
21.590000022022
 20
0.0
  0
ENDBLK
  5
3B2
330
3AF
100
AcDbEntity
  8
0
100
AcDbBlockEnd
  0
BLOCK
  5
3B4
330
3B3
100
AcDbEntity
  8
0
100
AcDbBlockBegin
  2
PAD_2
 70
     0
 10
0.0
 20
0.0
 30
0.0
  3
PAD_2
  1

  0
ENDBLK
  5
3B5
330
3B3
100
AcDbEntity
  8
0
100
AcDbBlockEnd
  0
BLOCK
  5
3B8
330
3B6
100
AcDbEntity
  8
0
100
AcDbBlockBegin
  2
PAD_3
 70
     0
 10
0.0
 20
0.0
 30
0.0
  3
PAD_3
  1

  0
LWPOLYLINE
  5
3B7
330
3B6
100
AcDbEntity
  8
0
  6
CONTINUOUS
 62
     7
100
AcDbPolyline
 90
        2
 70
     0
 43
0.0
 10
-10.160000010363
 20
0.0
 10
10.160000010363
 20
0.0
  0
ENDBLK
  5
3B9
330
3B6
100
AcDbEntity
  8
0
100
AcDbBlockEnd
  0
BLOCK
  5
3BD
330
3BA
100
AcDbEntity
  8
0
100
AcDbBlockBegin
  2
PAD_4
 70
     0
 10
0.0
 20
0.0
 30
0.0
  3
PAD_4
  1

  0
ARC
  5
3BB
330
3BA
100
AcDbEntity
  8
0
  6
CONTINUOUS
 62
     7
100
AcDbCircle
 10
0.000010952692
 20
0.0
 30
0.0
 40
8.255000008427364
100
AcDbArc
 50
269.999923980252
 51
89.999923980252
  0
ARC
  5
3BC
330
3BA
100
AcDbEntity
  8
0
  6
CONTINUOUS
 62
     7
100
AcDbCircle
 10
-0.000010952692
 20
0.0
 30
0.0
 40
8.255000008427366
100
AcDbArc
 50
89.999923980252
 51
269.999923980252
  0
ENDBLK
  5
3BE
330
3BA
100
AcDbEntity
  8
0
100
AcDbBlockEnd
  0
BLOCK
  5
3C1
330
3BF
100
AcDbEntity
  8
0
100
AcDbBlockBegin
  2
PAD_5
 70
     0
 10
0.0
 20
0.0
 30
0.0
  3
PAD_5
  1

  0
LWPOLYLINE
  5
3C0
330
3BF
100
AcDbEntity
  8
0
  6
CONTINUOUS
 62
     7
100
AcDbPolyline
 90
        2
 70
     0
 43
0.0
 10
-33.02000003368
 20
0.0
 10
33.02000003368
 20
0.0
  0
ENDBLK
  5
3C2
330
3BF
100
AcDbEntity
  8
0
100
AcDbBlockEnd
  0
BLOCK
  5
3C6
330
3C3
100
AcDbEntity
  8
0
100
AcDbBlockBegin
  2
PAD_6
 70
     0
 10
0.0
 20
0.0
 30
0.0
  3
PAD_6
  1

  0
ARC
  5
3C4
330
3C3
100
AcDbEntity
  8
0
  6
CONTINUOUS
 62
     7
100
AcDbCircle
 10
0.000021062869
 20
0.0
 30
0.0
 40
15.87500001620647
100
AcDbArc
 50
269.999923980252
 51
89.999923980252
  0
ARC
  5
3C5
330
3C3
100
AcDbEntity
  8
0
  6
CONTINUOUS
 62
     7
100
AcDbCircle
 10
-0.000021062869
 20
0.0
 30
0.0
 40
15.87500001620647
100
AcDbArc
 50
89.999923980252
 51
269.999923980252
  0
ENDBLK
  5
3C7
330
3C3
100
AcDbEntity
  8
0
100
AcDbBlockEnd
  0
BLOCK
  5
3CA
330
3C8
100
AcDbEntity
  8
0
100
AcDbBlockBegin
  2
PAD_7
 70
     0
 10
0.0
 20
0.0
 30
0.0
  3
PAD_7
  1

  0
LWPOLYLINE
  5
3C9
330
3C8
100
AcDbEntity
  8
0
  6
CONTINUOUS
 62
     7
100
AcDbPolyline
 90
        2
 70
     0
 43
0.0
 10
-20.320000020726
 20
0.0
 10
20.320000020726
 20
0.0
  0
ENDBLK
  5
3CB
330
3C8
100
AcDbEntity
  8
0
100
AcDbBlockEnd
  0
BLOCK
  5
3CE
330
3CC
100
AcDbEntity
  8
0
100
AcDbBlockBegin
  2
PAD_8
 70
     0
 10
0.0
 20
0.0
 30
0.0
  3
PAD_8
  1

  0
LWPOLYLINE
  5
3CD
330
3CC
100
AcDbEntity
  8
0
  6
CONTINUOUS
 62
     7
100
AcDbPolyline
 90
        2
 70
     0
 43
0.0
 10
-24.130000024613
 20
0.0
 10
24.130000024613
 20
0.0
  0
ENDBLK
  5
3CF
330
3CC
100
AcDbEntity
  8
0
100
AcDbBlockEnd
  0
BLOCK
  5
3D2
330
3D0
100
AcDbEntity
  8
0
100
AcDbBlockBegin
  2
PAD_9
 70
     0
 10
0.0
 20
0.0
 30
0.0
  3
PAD_9
  1

  0
LWPOLYLINE
  5
3D1
330
3D0
100
AcDbEntity
  8
0
  6
CONTINUOUS
 62
     7
100
AcDbPolyline
 90
        2
 70
     0
 43
0.0
 10
-35.560000036271
 20
0.0
 10
35.560000036271
 20
0.0
  0
ENDBLK
  5
3D3
330
3D0
100
AcDbEntity
  8
0
100
AcDbBlockEnd
  0
BLOCK
  5
3D7
330
3D4
100
AcDbEntity
  8
0
100
AcDbBlockBegin
  2
PAD_10
 70
     0
 10
0.0
 20
0.0
 30
0.0
  3
PAD_10
  1

  0
ARC
  5
3D5
330
3D4
100
AcDbEntity
  8
0
  6
CONTINUOUS
 62
     7
100
AcDbCircle
 10
0.000016850295
 20
0.0
 30
0.0
 40
12.70000001296518
100
AcDbArc
 50
269.999923980252
 51
89.999923980252
  0
ARC
  5
3D6
330
3D4
100
AcDbEntity
  8
0
  6
CONTINUOUS
 62
     7
100
AcDbCircle
 10
-0.000016850295
 20
0.0
 30
0.0
 40
12.70000001296518
100
AcDbArc
 50
89.999923980252
 51
269.999923980252
  0
ENDBLK
  5
3D8
330
3D4
100
AcDbEntity
  8
0
100
AcDbBlockEnd
  0
BLOCK
  5
3DB
330
3D9
100
AcDbEntity
  8
0
100
AcDbBlockBegin
  2
PAD_11
 70
     0
 10
0.0
 20
0.0
 30
0.0
  3
PAD_11
  1

  0
LWPOLYLINE
  5
3DA
330
3D9
100
AcDbEntity
  8
0
  6
CONTINUOUS
 62
     7
100
AcDbPolyline
 90
        2
 70
     0
 43
0.0
 10
-25.400000025908
 20
0.0
 10
25.400000025908
 20
0.0
  0
ENDBLK
  5
3DC
330
3D9
100
AcDbEntity
  8
0
100
AcDbBlockEnd
  0
BLOCK
  5
3E0
330
3DD
100
AcDbEntity
  8
0
100
AcDbBlockBegin
  2
PAD_12
 70
     0
 10
0.0
 20
0.0
 30
0.0
  3
PAD_12
  1

  0
ARC
  5
3DE
330
3DD
100
AcDbEntity
  8
0
  6
CONTINUOUS
 62
     7
100
AcDbCircle
 10
0.000012637721
 20
0.0
 30
0.0
 40
9.525000009723882
100
AcDbArc
 50
269.999923980252
 51
89.999923980252
  0
ARC
  5
3DF
330
3DD
100
AcDbEntity
  8
0
  6
CONTINUOUS
 62
     7
100
AcDbCircle
 10
-0.000012637721
 20
0.0
 30
0.0
 40
9.525000009723884
100
AcDbArc
 50
89.999923980252
 51
269.999923980252
  0
ENDBLK
  5
3E1
330
3DD
100
AcDbEntity
  8
0
100
AcDbBlockEnd
  0
BLOCK
  5
3E4
330
3E2
100
AcDbEntity
  8
0
100
AcDbBlockBegin
  2
PAD_13
 70
     0
 10
0.0
 20
0.0
 30
0.0
  3
PAD_13
  1

  0
LWPOLYLINE
  5
3E3
330
3E2
100
AcDbEntity
  8
0
  6
CONTINUOUS
 62
     7
100
AcDbPolyline
 90
        2
 70
     0
 43
0.0
 10
0.0
 20
0.0
 10
0.0
 20
0.0
  0
ENDBLK
  5
3E5
330
3E2
100
AcDbEntity
  8
0
100
AcDbBlockEnd
  0
BLOCK
  5
3E8
330
3E6
100
AcDbEntity
  8
0
100
AcDbBlockBegin
  2
PAD_14
 70
     0
 10
0.0
 20
0.0
 30
0.0
  3
PAD_14
  1

  0
LWPOLYLINE
  5
3E7
330
3E6
100
AcDbEntity
  8
0
  6
CONTINUOUS
 62
     7
100
AcDbPolyline
 90
        2
 70
     0
 43
0.0
 10
-19.050000019431
 20
0.0
 10
19.050000019431
 20
0.0
  0
ENDBLK
  5
3E9
330
3E6
100
AcDbEntity
  8
0
100
AcDbBlockEnd
  0
BLOCK
  5
3F3
330
3EA
100
AcDbEntity
  8
0
100
AcDbBlockBegin
  2
PAD_15
 70
     0
 10
0.0
 20
0.0
 30
0.0
  3
PAD_15
  1

  0
ARC
  5
3EB
330
3EA
100
AcDbEntity
  8
0
  6
CONTINUOUS
 62
     7
100
AcDbCircle
 10
0.000018535325
 20
0.0
 30
0.0
 40
13.9700000142617
100
AcDbArc
 50
269.999923980252
 51
89.999923980252
  0
ARC
  5
3EC
330
3EA
100
AcDbEntity
  8
0
  6
CONTINUOUS
 62
     7
100
AcDbCircle
 10
-0.000018535325
 20
0.0
 30
0.0
 40
13.97000001426169
100
AcDbArc
 50
89.999923980252
 51
269.999923980252
  0
ARC
  5
3ED
330
3EA
100
AcDbEntity
  8
0
  6
CONTINUOUS
 62
     7
100
AcDbCircle
 10
0.000025275443
 20
0.0
 30
0.0
 40
19.05000001944776
100
AcDbArc
 50
269.999923980252
 51
89.999923980252
  0
ARC
  5
3EE
330
3EA
100
AcDbEntity
  8
0
  6
CONTINUOUS
 62
     7
100
AcDbCircle
 10
-0.000025275443
 20
0.0
 30
0.0
 40
19.05000001944777
100
AcDbArc
 50
89.999923980252
 51
269.999923980252
  0
LWPOLYLINE
  5
3EF
330
3EA
100
AcDbEntity
  8
0
  6
CONTINUOUS
 62
     7
100
AcDbPolyline
 90
        2
 70
     0
 43
0.0
 10
0.0
 20
13.970000014249
 10
0.0
 20
19.050000019431
  0
LWPOLYLINE
  5
3F0
330
3EA
100
AcDbEntity
  8
0
  6
CONTINUOUS
 62
     7
100
AcDbPolyline
 90
        2
 70
     0
 43
0.0
 10
-13.970000014249
 20
0.0
 10
-19.050000019431
 20
0.0
  0
LWPOLYLINE
  5
3F1
330
3EA
100
AcDbEntity
  8
0
  6
CONTINUOUS
 62
     7
100
AcDbPolyline
 90
        2
 70
     0
 43
0.0
 10
0.0
 20
-13.970000014249
 10
0.0
 20
-19.050000019431
  0
LWPOLYLINE
  5
3F2
330
3EA
100
AcDbEntity
  8
0
  6
CONTINUOUS
 62
     7
100
AcDbPolyline
 90
        2
 70
     0
 43
0.0
 10
13.970000014249
 20
0.0
 10
19.050000019431
 20
0.0
  0
ENDBLK
  5
3F4
330
3EA
100
AcDbEntity
  8
0
100
AcDbBlockEnd
  0
BLOCK
  5
3F8
330
3F5
100
AcDbEntity
  8
0
100
AcDbBlockBegin
  2
PAD_16
 70
     0
 10
0.0
 20
0.0
 30
0.0
  3
PAD_16
  1

  0
ARC
  5
3F6
330
3F5
100
AcDbEntity
  8
0
  6
CONTINUOUS
 62
     7
100
AcDbCircle
 10
0.000005897603
 20
0.0
 30
0.0
 40
4.445000004537812
100
AcDbArc
 50
269.999923980252
 51
89.999923980252
  0
ARC
  5
3F7
330
3F5
100
AcDbEntity
  8
0
  6
CONTINUOUS
 62
     7
100
AcDbCircle
 10
-0.000005897603
 20
0.0
 30
0.0
 40
4.445000004537812
100
AcDbArc
 50
89.999923980252
 51
269.999923980252
  0
ENDBLK
  5
3F9
330
3F5
100
AcDbEntity
  8
0
100
AcDbBlockEnd
  0
BLOCK
  5
403
330
3FA
100
AcDbEntity
  8
0
100
AcDbBlockBegin
  2
PAD_17
 70
     0
 10
0.0
 20
0.0
 30
0.0
  3
PAD_17
  1

  0
ARC
  5
3FB
330
3FA
100
AcDbEntity
  8
0
  6
CONTINUOUS
 62
     7
100
AcDbCircle
 10
0.000011795207
 20
0.0
 30
0.0
 40
8.890000009075624
100
AcDbArc
 50
269.999923980252
 51
89.999923980252
  0
ARC
  5
3FC
330
3FA
100
AcDbEntity
  8
0
  6
CONTINUOUS
 62
     7
100
AcDbCircle
 10
-0.000011795207
 20
0.0
 30
0.0
 40
8.890000009075624
100
AcDbArc
 50
89.999923980252
 51
269.999923980252
  0
ARC
  5
3FD
330
3FA
100
AcDbEntity
  8
0
  6
CONTINUOUS
 62
     7
100
AcDbCircle
 10
0.000018535325
 20
0.0
 30
0.0
 40
13.9700000142617
100
AcDbArc
 50
269.999923980252
 51
89.999923980252
  0
ARC
  5
3FE
330
3FA
100
AcDbEntity
  8
0
  6
CONTINUOUS
 62
     7
100
AcDbCircle
 10
-0.000018535325
 20
0.0
 30
0.0
 40
13.97000001426169
100
AcDbArc
 50
89.999923980252
 51
269.999923980252
  0
LWPOLYLINE
  5
3FF
330
3FA
100
AcDbEntity
  8
0
  6
CONTINUOUS
 62
     7
100
AcDbPolyline
 90
        2
 70
     0
 43
0.0
 10
0.0
 20
8.890000009068
 10
0.0
 20
13.970000014249
  0
LWPOLYLINE
  5
400
330
3FA
100
AcDbEntity
  8
0
  6
CONTINUOUS
 62
     7
100
AcDbPolyline
 90
        2
 70
     0
 43
0.0
 10
-8.890000009068
 20
0.0
 10
-13.970000014249
 20
0.0
  0
LWPOLYLINE
  5
401
330
3FA
100
AcDbEntity
  8
0
  6
CONTINUOUS
 62
     7
100
AcDbPolyline
 90
        2
 70
     0
 43
0.0
 10
0.0
 20
-8.890000009068
 10
0.0
 20
-13.970000014249
  0
LWPOLYLINE
  5
402
330
3FA
100
AcDbEntity
  8
0
  6
CONTINUOUS
 62
     7
100
AcDbPolyline
 90
        2
 70
     0
 43
0.0
 10
8.890000009068
 20
0.0
 10
13.970000014249
 20
0.0
  0
ENDBLK
  5
404
330
3FA
100
AcDbEntity
  8
0
100
AcDbBlockEnd
  0
BLOCK
  5
408
330
405
100
AcDbEntity
  8
0
100
AcDbBlockBegin
  2
PAD_18
 70
     0
 10
0.0
 20
0.0
 30
0.0
  3
PAD_18
  1

  0
ARC
  5
406
330
405
100
AcDbEntity
  8
0
  6
CONTINUOUS
 62
     7
100
AcDbCircle
 10
0.000008846405
 20
0.0
 30
0.0
 40
6.667500006806718
100
AcDbArc
 50
269.999923980252
 51
89.999923980252
  0
ARC
  5
407
330
405
100
AcDbEntity
  8
0
  6
CONTINUOUS
 62
     7
100
AcDbCircle
 10
-0.000008846405
 20
0.0
 30
0.0
 40
6.667500006806718
100
AcDbArc
 50
89.999923980252
 51
269.999923980252
  0
ENDBLK
  5
409
330
405
100
AcDbEntity
  8
0
100
AcDbBlockEnd
  0
BLOCK
  5
40C
330
40A
100
AcDbEntity
  8
0
100
AcDbBlockBegin
  2
PAD_19
 70
     0
 10
0.0
 20
0.0
 30
0.0
  3
PAD_19
  1

  0
LWPOLYLINE
  5
40B
330
40A
100
AcDbEntity
  8
0
  6
CONTINUOUS
 62
     7
100
AcDbPolyline
 90
        2
 70
     0
 43
0.0
 10
-12.700000012954
 20
0.0
 10
12.700000012954
 20
0.0
  0
ENDBLK
  5
40D
330
40A
100
AcDbEntity
  8
0
100
AcDbBlockEnd
  0
BLOCK
  5
410
330
40E
100
AcDbEntity
  8
0
100
AcDbBlockBegin
  2
PAD_20
 70
     0
 10
0.0
 20
0.0
 30
0.0
  3
PAD_20
  1

  0
LWPOLYLINE
  5
40F
330
40E
100
AcDbEntity
  8
0
  6
CONTINUOUS
 62
     7
100
AcDbPolyline
 90
        2
 70
     0
 43
0.0
 10
-50.800000051816
 20
0.0
 10
50.800000051816
 20
0.0
  0
ENDBLK
  5
411
330
40E
100
AcDbEntity
  8
0
100
AcDbBlockEnd
  0
BLOCK
  5
414
330
412
100
AcDbEntity
  8
0
100
AcDbBlockBegin
  2
PAD_21
 70
     0
 10
0.0
 20
0.0
 30
0.0
  3
PAD_21
  1

  0
LWPOLYLINE
  5
413
330
412
100
AcDbEntity
  8
0
  6
CONTINUOUS
 62
     7
100
AcDbPolyline
 90
        2
 70
     0
 43
0.0
 10
-16.51000001684
 20
0.0
 10
16.51000001684
 20
0.0
  0
ENDBLK
  5
415
330
412
100
AcDbEntity
  8
0
100
AcDbBlockEnd
  0
BLOCK
  5
418
330
416
100
AcDbEntity
  8
0
100
AcDbBlockBegin
  2
PAD_22
 70
     0
 10
0.0
 20
0.0
 30
0.0
  3
PAD_22
  1

  0
LWPOLYLINE
  5
417
330
416
100
AcDbEntity
  8
0
  6
CONTINUOUS
 62
     7
100
AcDbPolyline
 90
        2
 70
     0
 43
0.0
 10
-22.580600023032
 20
0.0
 10
22.580600023032
 20
0.0
  0
ENDBLK
  5
419
330
416
100
AcDbEntity
  8
0
100
AcDbBlockEnd
  0
BLOCK
  5
41D
330
41A
100
AcDbEntity
  8
0
100
AcDbBlockBegin
  2
PAD_23
 70
     0
 10
0.0
 20
0.0
 30
0.0
  3
PAD_23
  1

  0
ARC
  5
41B
330
41A
100
AcDbEntity
  8
0
  6
CONTINUOUS
 62
     7
100
AcDbCircle
 10
0.000014979912
 20
0.0
 30
0.0
 40
11.29030001152604
100
AcDbArc
 50
269.999923980252
 51
89.999923980252
  0
ARC
  5
41C
330
41A
100
AcDbEntity
  8
0
  6
CONTINUOUS
 62
     7
100
AcDbCircle
 10
-0.000014979912
 20
0.0
 30
0.0
 40
11.29030001152604
100
AcDbArc
 50
89.999923980252
 51
269.999923980252
  0
ENDBLK
  5
41E
330
41A
100
AcDbEntity
  8
0
100
AcDbBlockEnd
  0
BLOCK
  5
423
330
41F
100
AcDbEntity
  8
0
100
AcDbBlockBegin
  2
DRIL_HOLE_0$9
 70
     0
 10
0.0
 20
0.0
 30
0.0
  3
DRIL_HOLE_0$9
  1

  0
ARC
  5
420
330
41F
100
AcDbEntity
  8
0
  6
CONTINUOUS
 62
     7
100
AcDbCircle
 10
0.0
 20
-0.000007582633
 30
0.0
 40
5.71500000583433
100
AcDbArc
 50
179.999923980252
 51
359.999923980252
  0
ARC
  5
421
330
41F
100
AcDbEntity
  8
0
  6
CONTINUOUS
 62
     7
100
AcDbCircle
 10
0.0
 20
0.000007582633
 30
0.0
 40
5.71500000583433
100
AcDbArc
 50
359.999923980252
 51
179.999923980252
  0
INSERT
  5
422
330
41F
100
AcDbEntity
  8
0
  6
CONTINUOUS
 62
     7
100
AcDbBlockReference
  2
DRIL_SYMBOL_0$9
 10
0.0
 20
0.0
 30
0.0
  0
ENDBLK
  5
424
330
41F
100
AcDbEntity
  8
0
100
AcDbBlockEnd
  0
BLOCK
  5
429
330
425
100
AcDbEntity
  8
0
100
AcDbBlockBegin
  2
DRIL_HOLE_1
 70
     0
 10
0.0
 20
0.0
 30
0.0
  3
DRIL_HOLE_1
  1

  0
ARC
  5
426
330
425
100
AcDbEntity
  8
0
  6
CONTINUOUS
 62
     7
100
AcDbCircle
 10
0.0
 20
-0.000008425148
 30
0.0
 40
6.350000006482589
100
AcDbArc
 50
179.999923980252
 51
359.999923980252
  0
ARC
  5
427
330
425
100
AcDbEntity
  8
0
  6
CONTINUOUS
 62
     7
100
AcDbCircle
 10
0.0
 20
0.000008425148
 30
0.0
 40
6.350000006482589
100
AcDbArc
 50
359.999923980252
 51
179.999923980252
  0
INSERT
  5
428
330
425
100
AcDbEntity
  8
0
  6
CONTINUOUS
 62
     7
100
AcDbBlockReference
  2
DRIL_SYMBOL_1
 10
0.0
 20
0.0
 30
0.0
  0
ENDBLK
  5
42A
330
425
100
AcDbEntity
  8
0
100
AcDbBlockEnd
  0
BLOCK
  5
42F
330
42B
100
AcDbEntity
  8
0
100
AcDbBlockBegin
  2
DRIL_HOLE_2$2
 70
     0
 10
0.0
 20
0.0
 30
0.0
  3
DRIL_HOLE_2$2
  1

  0
ARC
  5
42C
330
42B
100
AcDbEntity
  8
0
  6
CONTINUOUS
 62
     7
100
AcDbCircle
 10
0.0
 20
-0.000018535325
 30
0.0
 40
13.9700000142617
100
AcDbArc
 50
179.999923980252
 51
359.999923980252
  0
ARC
  5
42D
330
42B
100
AcDbEntity
  8
0
  6
CONTINUOUS
 62
     7
100
AcDbCircle
 10
0.0
 20
0.000018535325
 30
0.0
 40
13.97000001426169
100
AcDbArc
 50
359.999923980252
 51
179.999923980252
  0
INSERT
  5
42E
330
42B
100
AcDbEntity
  8
0
  6
CONTINUOUS
 62
     7
100
AcDbBlockReference
  2
DRIL_SYMBOL_2$2
 10
0.0
 20
0.0
 30
0.0
  0
ENDBLK
  5
430
330
42B
100
AcDbEntity
  8
0
100
AcDbBlockEnd
  0
BLOCK
  5
433
330
431
100
AcDbEntity
  8
0
100
AcDbBlockBegin
  2
DRIL_HOLE_0
 70
     0
 10
0.0
 20
0.0
 30
0.0
  3
DRIL_HOLE_0
  1

  0
INSERT
  5
432
330
431
100
AcDbEntity
  8
0
  6
CONTINUOUS
 62
     7
100
AcDbBlockReference
  2
DRIL_SYMBOL_0
 10
0.0
 20
0.0
 30
0.0
  0
ENDBLK
  5
434
330
431
100
AcDbEntity
  8
0
100
AcDbBlockEnd
  0
BLOCK
  5
439
330
435
100
AcDbEntity
  8
0
100
AcDbBlockBegin
  2
DRIL_HOLE_0$6
 70
     0
 10
0.0
 20
0.0
 30
0.0
  3
DRIL_HOLE_0$6
  1

  0
ARC
  5
436
330
435
100
AcDbEntity
  8
0
  6
CONTINUOUS
 62
     7
100
AcDbCircle
 10
0.0
 20
-0.000005055089
 30
0.0
 40
3.810000003889554
100
AcDbArc
 50
179.999923980252
 51
359.999923980252
  0
ARC
  5
437
330
435
100
AcDbEntity
  8
0
  6
CONTINUOUS
 62
     7
100
AcDbCircle
 10
0.0
 20
0.000005055089
 30
0.0
 40
3.810000003889553
100
AcDbArc
 50
359.999923980252
 51
179.999923980252
  0
INSERT
  5
438
330
435
100
AcDbEntity
  8
0
  6
CONTINUOUS
 62
     7
100
AcDbBlockReference
  2
DRIL_SYMBOL_0$6
 10
0.0
 20
0.0
 30
0.0
  0
ENDBLK
  5
43A
330
435
100
AcDbEntity
  8
0
100
AcDbBlockEnd
  0
BLOCK
  5
43F
330
43B
100
AcDbEntity
  8
0
100
AcDbBlockBegin
  2
DRIL_HOLE_1$3
 70
     0
 10
0.0
 20
0.0
 30
0.0
  3
DRIL_HOLE_1$3
  1

  0
ARC
  5
43C
330
43B
100
AcDbEntity
  8
0
  6
CONTINUOUS
 62
     7
100
AcDbCircle
 10
0.0
 20
-0.000010952692
 30
0.0
 40
8.255000008427366
100
AcDbArc
 50
179.999923980252
 51
359.999923980252
  0
ARC
  5
43D
330
43B
100
AcDbEntity
  8
0
  6
CONTINUOUS
 62
     7
100
AcDbCircle
 10
0.0
 20
0.000010952692
 30
0.0
 40
8.255000008427366
100
AcDbArc
 50
359.999923980252
 51
179.999923980252
  0
INSERT
  5
43E
330
43B
100
AcDbEntity
  8
0
  6
CONTINUOUS
 62
     7
100
AcDbBlockReference
  2
DRIL_SYMBOL_1$3
 10
0.0
 20
0.0
 30
0.0
  0
ENDBLK
  5
440
330
43B
100
AcDbEntity
  8
0
100
AcDbBlockEnd
  0
BLOCK
  5
445
330
441
100
AcDbEntity
  8
0
100
AcDbBlockBegin
  2
DRIL_HOLE_6$5
 70
     0
 10
0.0
 20
0.0
 30
0.0
  3
DRIL_HOLE_6$5
  1

  0
ARC
  5
442
330
441
100
AcDbEntity
  8
0
  6
CONTINUOUS
 62
     7
100
AcDbCircle
 10
0.0
 20
-0.000054763459
 30
0.0
 40
41.27500004213683
100
AcDbArc
 50
179.999923980252
 51
359.999923980252
  0
ARC
  5
443
330
441
100
AcDbEntity
  8
0
  6
CONTINUOUS
 62
     7
100
AcDbCircle
 10
0.0
 20
0.000054763459
 30
0.0
 40
41.27500004213683
100
AcDbArc
 50
359.999923980252
 51
179.999923980252
  0
INSERT
  5
444
330
441
100
AcDbEntity
  8
0
  6
CONTINUOUS
 62
     7
100
AcDbBlockReference
  2
DRIL_SYMBOL_6$5
 10
0.0
 20
0.0
 30
0.0
  0
ENDBLK
  5
446
330
441
100
AcDbEntity
  8
0
100
AcDbBlockEnd
  0
BLOCK
  5
44B
330
447
100
AcDbEntity
  8
0
100
AcDbBlockBegin
  2
DRIL_HOLE_0$7
 70
     0
 10
0.0
 20
0.0
 30
0.0
  3
DRIL_HOLE_0$7
  1

  0
ARC
  5
448
330
447
100
AcDbEntity
  8
0
  6
CONTINUOUS
 62
     7
100
AcDbCircle
 10
0.0
 20
-0.000005897603
 30
0.0
 40
4.445000004537812
100
AcDbArc
 50
179.999923980252
 51
359.999923980252
  0
ARC
  5
449
330
447
100
AcDbEntity
  8
0
  6
CONTINUOUS
 62
     7
100
AcDbCircle
 10
0.0
 20
0.000005897603
 30
0.0
 40
4.445000004537812
100
AcDbArc
 50
359.999923980252
 51
179.999923980252
  0
INSERT
  5
44A
330
447
100
AcDbEntity
  8
0
  6
CONTINUOUS
 62
     7
100
AcDbBlockReference
  2
DRIL_SYMBOL_0$7
 10
0.0
 20
0.0
 30
0.0
  0
ENDBLK
  5
44C
330
447
100
AcDbEntity
  8
0
100
AcDbBlockEnd
  0
BLOCK
  5
451
330
44D
100
AcDbEntity
  8
0
100
AcDbBlockBegin
  2
DRIL_HOLE_0$8
 70
     0
 10
0.0
 20
0.0
 30
0.0
  3
DRIL_HOLE_0$8
  1

  0
ARC
  5
44E
330
44D
100
AcDbEntity
  8
0
  6
CONTINUOUS
 62
     7
100
AcDbCircle
 10
0.0
 20
-0.000006740118
 30
0.0
 40
5.080000005186071
100
AcDbArc
 50
179.999923980252
 51
359.999923980252
  0
ARC
  5
44F
330
44D
100
AcDbEntity
  8
0
  6
CONTINUOUS
 62
     7
100
AcDbCircle
 10
0.0
 20
0.000006740118
 30
0.0
 40
5.080000005186071
100
AcDbArc
 50
359.999923980252
 51
179.999923980252
  0
INSERT
  5
450
330
44D
100
AcDbEntity
  8
0
  6
CONTINUOUS
 62
     7
100
AcDbBlockReference
  2
DRIL_SYMBOL_0$8
 10
0.0
 20
0.0
 30
0.0
  0
ENDBLK
  5
452
330
44D
100
AcDbEntity
  8
0
100
AcDbBlockEnd
  0
BLOCK
  5
457
330
453
100
AcDbEntity
  8
0
100
AcDbBlockBegin
  2
DRIL_HOLE_1$2
 70
     0
 10
0.0
 20
0.0
 30
0.0
  3
DRIL_HOLE_1$2
  1

  0
ARC
  5
454
330
453
100
AcDbEntity
  8
0
  6
CONTINUOUS
 62
     7
100
AcDbCircle
 10
0.0
 20
-0.000010110177
 30
0.0
 40
7.620000007779107
100
AcDbArc
 50
179.999923980252
 51
359.999923980252
  0
ARC
  5
455
330
453
100
AcDbEntity
  8
0
  6
CONTINUOUS
 62
     7
100
AcDbCircle
 10
0.0
 20
0.000010110177
 30
0.0
 40
7.620000007779106
100
AcDbArc
 50
359.999923980252
 51
179.999923980252
  0
INSERT
  5
456
330
453
100
AcDbEntity
  8
0
  6
CONTINUOUS
 62
     7
100
AcDbBlockReference
  2
DRIL_SYMBOL_1$2
 10
0.0
 20
0.0
 30
0.0
  0
ENDBLK
  5
458
330
453
100
AcDbEntity
  8
0
100
AcDbBlockEnd
  0
BLOCK
  5
45A
330
459
100
AcDbEntity
  8
0
100
AcDbBlockBegin
  2
$TD_AUDIT_GENERATED__0_0
 70
     0
 10
0.0
 20
0.0
 30
0.0
  3
$TD_AUDIT_GENERATED__0_0
  1

  0
ENDBLK
  5
45B
330
459
100
AcDbEntity
  8
0
100
AcDbBlockEnd
  0
BLOCK
  5
475
330
474
100
AcDbEntity
  8
0
100
AcDbBlockBegin
  2
*D227
 70
     1
 10
0.0
 20
0.0
 30
0.0
  3
*D227
  1

  0
LINE
  5
477
330
474
100
AcDbEntity
  8
BEMASSUNG
  6
CONTINUOUS
 62
     0
100
AcDbLine
 10
-57.455408955225
 20
36.562511344275
 30
0.0
 11
-55.955408955225
 21
36.562511344275
 31
0.0
  0
LINE
  5
478
330
474
100
AcDbEntity
  8
BEMASSUNG
  6
CONTINUOUS
 62
     0
100
AcDbLine
 10
-55.955408955225
 20
36.562511344275
 30
0.0
 11
-42.693737152249
 21
27.897039412359
 31
0.0
  0
MTEXT
  5
479
330
474
100
AcDbEntity
  8
BEMASSUNG
 62
     0
100
AcDbMText
 10
-63.545408955225
 20
36.562511344275
 30
0.0
 40
3.0
 41
0.0
 71
     5
 72
     1
  1
\A1;R49.5
  0
SOLID
  5
47A
330
474
100
AcDbEntity
  8
BEMASSUNG
 62
     0
100
AcDbTrace
 10
-42.830487345447
 20
27.687756387103
 30
0.0
 11
-42.556986959051
 21
28.106322437615
 31
0.0
 12
-41.438039000712
 22
27.076538253172
 32
0.0
 13
-41.438039000712
 23
27.076538253172
 33
0.0
  0
POINT
  5
47B
330
474
100
AcDbEntity
  8
DEFPOINTS
 62
     0
100
AcDbPoint
 10
-41.438039000712
 20
27.076538253172
 30
0.0
  0
POINT
  5
47C
330
474
100
AcDbEntity
  8
DEFPOINTS
 62
     0
100
AcDbPoint
 10
0.0
 20
0.0
 30
0.0
  0
ENDBLK
  5
476
330
474
100
AcDbEntity
  8
0
100
AcDbBlockEnd
  0
BLOCK
  5
47F
330
47E
100
AcDbEntity
  8
0
100
AcDbBlockBegin
  2
*D228
 70
     1
 10
0.0
 20
0.0
 30
0.0
  3
*D228
  1

  0
LINE
  5
481
330
47E
100
AcDbEntity
  8
BEMASSUNG
  6
CONTINUOUS
 62
     0
100
AcDbLine
 10
-81.278837989927
 20
36.022783535869
 30
0.0
 11
-79.778837989927
 21
36.022783535869
 31
0.0
  0
LINE
  5
482
330
47E
100
AcDbEntity
  8
BEMASSUNG
  6
CONTINUOUS
 62
     0
100
AcDbLine
 10
-79.778837989927
 20
36.022783535869
 30
0.0
 11
-54.683873453619
 21
24.691577189571
 31
0.0
  0
MTEXT
  5
483
330
47E
100
AcDbEntity
  8
BEMASSUNG
 62
     0
100
AcDbMText
 10
-87.368837989927
 20
36.022783535869
 30
0.0
 40
3.0
 41
0.0
 71
     5
 72
     1
  1
\A1;R58.5
  0
SOLID
  5
484
330
47E
100
AcDbEntity
  8
BEMASSUNG
 62
     0
100
AcDbTrace
 10
-54.786755025243
 20
24.463727716848
 30
0.0
 11
-54.580991881996
 21
24.919426662295
 31
0.0
 12
-53.316776617279
 22
24.074287759832
 32
0.0
 13
-53.316776617279
 23
24.074287759832
 33
0.0
  0
POINT
  5
485
330
47E
100
AcDbEntity
  8
DEFPOINTS
 62
     0
100
AcDbPoint
 10
-53.316776617279
 20
24.074287759832
 30
0.0
  0
POINT
  5
486
330
47E
100
AcDbEntity
  8
DEFPOINTS
 62
     0
100
AcDbPoint
 10
0.0
 20
0.0
 30
0.0
  0
ENDBLK
  5
480
330
47E
100
AcDbEntity
  8
0
100
AcDbBlockEnd
  0
BLOCK
  5
489
330
488
100
AcDbEntity
  8
0
100
AcDbBlockBegin
  2
*D229
 70
     1
 10
0.0
 20
0.0
 30
0.0
  3
*D229
  1

  0
LINE
  5
48B
330
488
100
AcDbEntity
  8
BEMASSUNG
  6
CONTINUOUS
 62
     0
100
AcDbLine
 10
-8.428280345087
 20
53.980660302609
 30
0.0
 11
-9.928280345087
 21
53.980660302609
 31
0.0
  0
LINE
  5
48C
330
488
100
AcDbEntity
  8
BEMASSUNG
  6
CONTINUOUS
 62
     0
100
AcDbLine
 10
-11.326619107396
 20
53.437844766884
 30
0.0
 11
-9.928280345087
 21
53.980660302609
 31
0.0
  0
MTEXT
  5
48D
330
488
100
AcDbEntity
  8
BEMASSUNG
 62
     0
100
AcDbMText
 10
-3.838280345087
 20
53.980660302609
 30
0.0
 40
3.0
 41
0.0
 71
     5
 72
     1
  1
\A1;%%c8.5
  0
SOLID
  5
48E
330
488
100
AcDbEntity
  8
BEMASSUNG
 62
     0
100
AcDbTrace
 10
-11.41708836335
 20
53.670901227269
 30
0.0
 11
-11.236149851442
 21
53.204788306499
 31
0.0
 12
-12.724957869705
 22
52.895029231159
 32
0.0
 13
-12.724957869705
 23
52.895029231159
 33
0.0
  0
POINT
  5
48F
330
488
100
AcDbEntity
  8
DEFPOINTS
 62
     0
100
AcDbPoint
 10
-12.724957869705
 20
52.895029231159
 30
0.0
  0
POINT
  5
490
330
488
100
AcDbEntity
  8
DEFPOINTS
 62
     0
100
AcDbPoint
 10
-20.648877522789
 20
49.819074528718
 30
0.0
  0
ENDBLK
  5
48A
330
488
100
AcDbEntity
  8
0
100
AcDbBlockEnd
  0
BLOCK
  5
497
330
496
100
AcDbEntity
  8
0
100
AcDbBlockBegin
  2
*D230
 70
     1
 10
0.0
 20
0.0
 30
0.0
  3
*D230
  1

  0
LINE
  5
499
330
496
100
AcDbEntity
  8
BEMASSUNG
  6
CONTINUOUS
 62
     0
100
AcDbLine
 10
-73.953398925276
 20
-9.247915541668
 30
0.0
 11
-72.453398925276
 21
-9.247915541668
 31
0.0
  0
LINE
  5
49A
330
496
100
AcDbEntity
  8
BEMASSUNG
  6
CONTINUOUS
 62
     0
100
AcDbLine
 10
-72.453398925276
 20
-9.247915541668
 30
0.0
 11
-66.069211532754
 21
-6.048481873795
 31
0.0
  0
MTEXT
  5
49B
330
496
100
AcDbEntity
  8
BEMASSUNG
 62
     0
100
AcDbMText
 10
-80.043398925276
 20
-9.247915541668
 30
0.0
 40
3.0
 41
0.0
 71
     5
 72
     1
  1
\A1;R12.0
  0
SOLID
  5
49C
330
496
100
AcDbEntity
  8
BEMASSUNG
 62
     0
100
AcDbTrace
 10
-65.957202609166
 20
-6.271985791068
 30
0.0
 11
-66.181220456343
 21
-5.824977956522
 31
0.0
 12
-64.728188029115
 22
-5.376428332262
 32
0.0
 13
-64.728188029115
 23
-5.376428332262
 33
0.0
  0
POINT
  5
49D
330
496
100
AcDbEntity
  8
DEFPOINTS
 62
     0
100
AcDbPoint
 10
-64.728188029115
 20
-5.376428332262
 30
0.0
  0
POINT
  5
49E
330
496
100
AcDbEntity
  8
DEFPOINTS
 62
     0
100
AcDbPoint
 10
-54.0
 20
0.0
 30
0.0
  0
ENDBLK
  5
498
330
496
100
AcDbEntity
  8
0
100
AcDbBlockEnd
  0
BLOCK
  5
4A1
330
4A0
100
AcDbEntity
  8
0
100
AcDbBlockBegin
  2
*D231
 70
     1
 10
0.0
 20
0.0
 30
0.0
  3
*D231
  1

  0
LINE
  5
4A3
330
4A0
100
AcDbEntity
  8
BEMASSUNG
  6
CONTINUOUS
 62
     0
100
AcDbLine
 10
-54.747322023708
 20
-41.338670076117
 30
0.0
 11
-53.247322023708
 21
-41.338670076117
 31
0.0
  0
LINE
  5
4A4
330
4A0
100
AcDbEntity
  8
BEMASSUNG
  6
CONTINUOUS
 62
     0
100
AcDbLine
 10
-53.247322023708
 20
-41.338670076117
 30
0.0
 11
-43.839319656131
 21
-34.034747715938
 31
0.0
  0
MTEXT
  5
4A5
330
4A0
100
AcDbEntity
  8
BEMASSUNG
 62
     0
100
AcDbMText
 10
-60.837322023708
 20
-41.338670076117
 30
0.0
 40
3.0
 41
0.0
 71
     5
 72
     1
  1
\A1;R54.0
  0
SOLID
  5
4A6
330
4A0
100
AcDbEntity
  8
BEMASSUNG
 62
     0
100
AcDbTrace
 10
-43.686009981735
 20
-34.232222128804
 30
0.0
 11
-43.992629330527
 21
-33.837273303073
 31
0.0
 12
-42.654473178938
 22
-33.114889669561
 32
0.0
 13
-42.654473178938
 23
-33.114889669561
 33
0.0
  0
POINT
  5
4A7
330
4A0
100
AcDbEntity
  8
DEFPOINTS
 62
     0
100
AcDbPoint
 10
-42.654473178938
 20
-33.114889669561
 30
0.0
  0
POINT
  5
4A8
330
4A0
100
AcDbEntity
  8
DEFPOINTS
 62
     0
100
AcDbPoint
 10
0.0
 20
0.0
 30
0.0
  0
ENDBLK
  5
4A2
330
4A0
100
AcDbEntity
  8
0
100
AcDbBlockEnd
  0
BLOCK
  5
4AB
330
4AA
100
AcDbEntity
  8
0
100
AcDbBlockBegin
  2
*D232
 70
     1
 10
0.0
 20
0.0
 30
0.0
  3
*D232
  1

  0
LINE
  5
4AD
330
4AA
100
AcDbEntity
  8
BEMASSUNG
  6
CONTINUOUS
 62
     0
100
AcDbLine
 10
-54.000000016307
 20
-0.0625
 30
0.0
 11
-54.000000016307
 21
-79.687775235171
 31
0.0
  0
LINE
  5
4AE
330
4AA
100
AcDbEntity
  8
BEMASSUNG
  6
CONTINUOUS
 62
     0
100
AcDbLine
 10
-16.686917712554
 20
-0.0625
 30
0.0
 11
-16.686917712554
 21
-79.687775235171
 31
0.0
  0
LINE
  5
4AF
330
4AA
100
AcDbEntity
  8
BEMASSUNG
  6
CONTINUOUS
 62
     0
100
AcDbLine
 10
-52.500000016307
 20
-79.507775228018
 30
0.0
 11
-40.004887435859
 21
-79.507775228018
 31
0.0
  0
LINE
  5
4B0
330
4AA
100
AcDbEntity
  8
BEMASSUNG
  6
CONTINUOUS
 62
     0
100
AcDbLine
 10
-18.186917712554
 20
-79.507775228018
 30
0.0
 11
-30.682030293002
 21
-79.507775228018
 31
0.0
  0
SOLID
  5
4B1
330
4AA
100
AcDbEntity
  8
BEMASSUNG
 62
     0
100
AcDbTrace
 10
-52.500000016307
 20
-79.257775228018
 30
0.0
 11
-52.500000016307
 21
-79.757775228018
 31
0.0
 12
-54.000000016307
 22
-79.507775228018
 32
0.0
 13
-54.000000016307
 23
-79.507775228018
 33
0.0
  0
SOLID
  5
4B2
330
4AA
100
AcDbEntity
  8
BEMASSUNG
 62
     0
100
AcDbTrace
 10
-18.186917712554
 20
-79.757775228018
 30
0.0
 11
-18.186917712554
 21
-79.257775228018
 31
0.0
 12
-16.686917712554
 22
-79.507775228018
 32
0.0
 13
-16.686917712554
 23
-79.507775228018
 33
0.0
  0
MTEXT
  5
4B3
330
4AA
100
AcDbEntity
  8
BEMASSUNG
 62
     0
100
AcDbMText
 10
-35.343458864431
 20
-79.507775228018
 30
0.0
 40
3.0
 41
0.0
 71
     5
 72
     1
  1
\A1;37.3
  0
POINT
  5
4B4
330
4AA
100
AcDbEntity
  8
DEFPOINTS
 62
     0
100
AcDbPoint
 10
-54.000000016307
 20
0.0
 30
0.0
  0
POINT
  5
4B5
330
4AA
100
AcDbEntity
  8
DEFPOINTS
 62
     0
100
AcDbPoint
 10
-16.686917712554
 20
0.0
 30
0.0
  0
POINT
  5
4B6
330
4AA
100
AcDbEntity
  8
DEFPOINTS
 62
     0
100
AcDbPoint
 10
-16.686917712554
 20
-79.507775228018
 30
0.0
  0
ENDBLK
  5
4AC
330
4AA
100
AcDbEntity
  8
0
100
AcDbBlockEnd
  0
BLOCK
  5
4B9
330
4B8
100
AcDbEntity
  8
0
100
AcDbBlockBegin
  2
*D233
 70
     1
 10
0.0
 20
0.0
 30
0.0
  3
*D233
  1

  0
LINE
  5
4BB
330
4B8
100
AcDbEntity
  8
BEMASSUNG
  6
CONTINUOUS
 62
     0
100
AcDbLine
 10
-16.624417696247
 20
51.357051875123
 30
0.0
 11
7.032323812886
 21
51.357051879975
 31
0.0
  0
LINE
  5
4BC
330
4B8
100
AcDbEntity
  8
BEMASSUNG
  6
CONTINUOUS
 62
     0
100
AcDbLine
 10
-16.624417696247
 20
-51.357051884753
 30
0.0
 11
7.032323833953
 21
-51.357051879901
 31
0.0
  0
LINE
  5
4BD
330
4B8
100
AcDbEntity
  8
BEMASSUNG
  6
CONTINUOUS
 62
     0
100
AcDbLine
 10
6.852323806041
 20
49.857051879938
 30
0.0
 11
6.852323815941
 21
1.59
 31
0.0
  0
LINE
  5
4BE
330
4B8
100
AcDbEntity
  8
BEMASSUNG
  6
CONTINUOUS
 62
     0
100
AcDbLine
 10
6.852323826493
 20
-49.857051879938
 30
0.0
 11
6.852323816593
 21
-1.59
 31
0.0
  0
SOLID
  5
4BF
330
4B8
100
AcDbEntity
  8
BEMASSUNG
 62
     0
100
AcDbTrace
 10
7.102323806041
 20
49.857051879989
 30
0.0
 11
6.602323806041
 21
49.857051879887
 31
0.0
 12
6.852323805733
 22
51.357051879938
 32
0.0
 13
6.852323805733
 23
51.357051879938
 33
0.0
  0
SOLID
  5
4C0
330
4B8
100
AcDbEntity
  8
BEMASSUNG
 62
     0
100
AcDbTrace
 10
6.602323826493
 20
-49.857051879989
 30
0.0
 11
7.102323826493
 21
-49.857051879887
 31
0.0
 12
6.8523238268
 22
-51.357051879938
 32
0.0
 13
6.8523238268
 23
-51.357051879938
 33
0.0
  0
MTEXT
  5
4C1
330
4B8
100
AcDbEntity
  8
BEMASSUNG
 62
     0
100
AcDbMText
 10
6.852323816267
 20
0.0
 30
0.0
 40
3.0
 41
0.0
 71
     5
 72
     1
  1
\A1;102.7
  0
POINT
  5
4C2
330
4B8
100
AcDbEntity
  8
DEFPOINTS
 62
     0
100
AcDbPoint
 10
-16.686917696247
 20
51.35705187511
 30
0.0
  0
POINT
  5
4C3
330
4B8
100
AcDbEntity
  8
DEFPOINTS
 62
     0
100
AcDbPoint
 10
-16.686917696247
 20
-51.357051884766
 30
0.0
  0
POINT
  5
4C4
330
4B8
100
AcDbEntity
  8
DEFPOINTS
 62
     0
100
AcDbPoint
 10
6.8523238268
 20
-51.357051879938
 30
0.0
  0
ENDBLK
  5
4BA
330
4B8
100
AcDbEntity
  8
0
100
AcDbBlockEnd
  0
BLOCK
  5
4C9
330
4C8
100
AcDbEntity
  8
0
100
AcDbBlockBegin
  2
$TD_AUDIT_GENERATED__0_
 70
     0
 10
0.0
 20
0.0
 30
0.0
  3
$TD_AUDIT_GENERATED__0_
  1

  0
ENDBLK
  5
4CA
330
4C8
100
AcDbEntity
  8
0
100
AcDbBlockEnd
  0
ENDSEC
  0
SECTION
  2
ENTITIES
  0
ARC
  5
45C
330
1F
100
AcDbEntity
  8
BEMASSUNG
  6
CONTINUOUS
 62
    12
100
AcDbCircle
 10
0.0
 20
0.0
 30
0.0
 40
54.0
100
AcDbArc
 50
189.826593891092
 51
242.173406108908
  0
ARC
  5
45D
330
1F
100
AcDbEntity
  8
0
  6
CONTINUOUS
 62
     7
100
AcDbCircle
 10
0.0
 20
0.0
 30
0.0
 40
49.5
100
AcDbArc
 50
194.06297800768
 51
237.937021481418
  0
ARC
  5
45E
330
1F
100
AcDbEntity
  8
0
  6
CONTINUOUS
 62
     7
100
AcDbCircle
 10
0.0
 20
0.0
 30
0.0
 40
58.5
100
AcDbArc
 50
191.928018865363
 51
240.071978596298
  0
ARC
  5
45F
330
1F
100
AcDbEntity
  8
0
  6
CONTINUOUS
 62
     7
100
AcDbCircle
 10
0.0
 20
0.0
 30
0.0
 40
58.5
100
AcDbArc
 50
119.928021402807
 51
168.07198114561
  0
ARC
  5
460
330
1F
100
AcDbEntity
  8
0
  6
CONTINUOUS
 62
     7
100
AcDbCircle
 10
0.0
 20
0.0
 30
0.0
 40
49.5
100
AcDbArc
 50
122.062993983004
 51
165.937019044623
  0
CIRCLE
  5
461
330
1F
100
AcDbEntity
  8
0
  6
CONTINUOUS
 62
     7
100
AcDbCircle
 10
-16.686917696247
 20
-51.357051879938
 30
0.0
 40
4.250000000000001
  0
CIRCLE
  5
462
330
1F
100
AcDbEntity
  8
0
  6
CONTINUOUS
 62
     7
100
AcDbCircle
 10
-16.686917696247
 20
51.357051879938
 30
0.0
 40
4.25
  0
ARC
  5
463
330
1F
100
AcDbEntity
  8
0
  6
CONTINUOUS
 62
     7
100
AcDbCircle
 10
-16.68692
 20
-51.35705
 30
0.0
 40
12.0
100
AcDbArc
 50
122.857617847477
 51
127.530170226518
  0
ARC
  5
464
330
1F
100
AcDbEntity
  8
0
  6
CONTINUOUS
 62
     7
100
AcDbCircle
 10
-16.68692
 20
-51.35705
 30
0.0
 40
12.0
100
AcDbArc
 50
180.92027454661
 51
352.671924144962
  0
ARC
  5
465
330
1F
100
AcDbEntity
  8
0
  6
CONTINUOUS
 62
     7
100
AcDbCircle
 10
-16.68692
 20
51.35705
 30
0.0
 40
12.0
100
AcDbArc
 50
7.328078946883
 51
179.079725451788
  0
ARC
  5
466
330
1F
100
AcDbEntity
  8
0
  6
CONTINUOUS
 62
     7
100
AcDbCircle
 10
-16.68692
 20
51.35705
 30
0.0
 40
12.0
100
AcDbArc
 50
232.469808566179
 51
237.142371510039
  0
ARC
  5
467
330
1F
100
AcDbEntity
  8
0
  6
CONTINUOUS
 62
     7
100
AcDbCircle
 10
-54.0
 20
0.0
 30
0.0
 40
12.0
100
AcDbArc
 50
50.857599342105
 51
55.530194546769
  0
ARC
  5
468
330
1F
100
AcDbEntity
  8
0
  6
CONTINUOUS
 62
     7
100
AcDbCircle
 10
-54.0
 20
0.0
 30
0.0
 40
12.0
100
AcDbArc
 50
108.92027208224
 51
251.079727910591
  0
ARC
  5
469
330
1F
100
AcDbEntity
  8
0
  6
CONTINUOUS
 62
     7
100
AcDbCircle
 10
-54.0
 20
0.0
 30
0.0
 40
12.0
100
AcDbArc
 50
304.469827225061
 51
309.14239131986
  0
CIRCLE
  5
46A
330
1F
100
AcDbEntity
  8
0
  6
CONTINUOUS
 62
     7
100
AcDbCircle
 10
-54.0
 20
0.0
 30
0.0
 40
4.25
  0
LINE
  5
46B
330
1F
100
AcDbEntity
  8
0
  6
CONTINUOUS
 62
     7
100
AcDbLine
 10
-4.783018518872
 20
46.48458274171
 30
0.0
 11
-21.49442278814
 21
41.054719291309
 31
0.0
  0
LINE
  5
46C
330
1F
100
AcDbEntity
  8
0
  6
CONTINUOUS
 62
     7
100
AcDbLine
 10
-45.68749943624
 20
7.755796160391
 30
0.0
 11
-45.687500232483
 21
-7.755797969314
 31
0.0
  0
LINE
  5
46D
330
1F
100
AcDbEntity
  8
0
  6
CONTINUOUS
 62
     7
100
AcDbLine
 10
-21.494420478723
 20
-41.054719204465
 30
0.0
 11
-4.783018552029
 21
-46.484583790506
 31
0.0
  0
ARC
  5
46E
330
1F
100
AcDbEntity
  8
0
  6
CONTINUOUS
 62
     7
100
AcDbCircle
 10
-25.215438687197
 20
40.254586372495
 30
0.0
 40
2.0
100
AcDbArc
 50
52.469808566179
 51
122.062993983004
  0
ARC
  5
46F
330
1F
100
AcDbEntity
  8
0
  6
CONTINUOUS
 62
     7
100
AcDbCircle
 10
-46.076392358947
 20
11.541946504246
 30
0.0
 40
2.0
100
AcDbArc
 50
165.937019044623
 51
235.530194546769
  0
ARC
  5
470
330
1F
100
AcDbEntity
  8
0
  6
CONTINUOUS
 62
     7
100
AcDbCircle
 10
-46.076388328671
 20
-11.541942975441
 30
0.0
 40
2.0
100
AcDbArc
 50
124.469827225061
 51
194.06297800768
  0
ARC
  5
471
330
1F
100
AcDbEntity
  8
0
  6
CONTINUOUS
 62
     7
100
AcDbCircle
 10
-25.215427419215
 20
-40.254592534807
 30
0.0
 40
2.0
100
AcDbArc
 50
237.937021481417
 51
307.530170226518
  0
DIMENSION
  5
472
330
1F
100
AcDbEntity
  8
BEMASSUNG
  6
CONTINUOUS
 62
    12
100
AcDbDimension
  2
*D227
 10
0.0
 20
0.0
 30
0.0
 11
-63.545408955225
 21
36.562511344275
 31
0.0
 70
   164
  3
STANDARD
100
AcDbRadialDimension
 15
-41.438039000712
 25
27.076538253172
 35
0.0
 40
0.0
1001
ACAD
1000
DSTYLE
1002
{
1070
   141
1040
0.0
1070
   271
1070
     1
1070
    41
1040
1.5
1070
   140
1040
3.0
1002
}
  0
DIMENSION
  5
47D
330
1F
100
AcDbEntity
  8
BEMASSUNG
  6
CONTINUOUS
 62
    12
100
AcDbDimension
  2
*D228
 10
0.0
 20
0.0
 30
0.0
 11
-87.368837989927
 21
36.022783535869
 31
0.0
 70
   164
  3
STANDARD
100
AcDbRadialDimension
 15
-53.316776617279
 25
24.074287759832
 35
0.0
 40
0.0
1001
ACAD
1000
DSTYLE
1002
{
1070
   141
1040
0.0
1070
   271
1070
     1
1070
    41
1040
1.5
1070
   140
1040
3.0
1002
}
  0
DIMENSION
  5
487
330
1F
100
AcDbEntity
  8
BEMASSUNG
  6
CONTINUOUS
 62
    12
100
AcDbDimension
  2
*D229
 10
-20.648877522789
 20
49.819074528718
 30
0.0
 11
-3.838280345087
 21
53.980660302609
 31
0.0
 70
    35
  3
STANDARD
100
AcDbDiametricDimension
 15
-12.724957869705
 25
52.895029231159
 35
0.0
 40
0.0
1001
ACAD
1000
DSTYLE
1002
{
1070
   141
1040
0.0
1070
   271
1070
     1
1070
    41
1040
1.5
1070
   140
1040
3.0
1002
}
  0
ARC
  5
491
330
1F
100
AcDbEntity
  8
0
  6
CONTINUOUS
 62
     7
100
AcDbCircle
 10
-22.112456679251
 20
42.956832355624
 30
0.0
 40
2.0
100
AcDbArc
 50
237.142371510039
 51
287.999997058889
  0
ARC
  5
492
330
1F
100
AcDbEntity
  8
0
  6
CONTINUOUS
 62
     7
100
AcDbCircle
 10
-47.68749943624
 20
7.755796263078
 30
0.0
 40
2.0
100
AcDbArc
 50
359.99999705822
 51
50.857599342105
  0
ARC
  5
493
330
1F
100
AcDbEntity
  8
0
  6
CONTINUOUS
 62
     7
100
AcDbCircle
 10
-47.687500232483
 20
-7.755797866636
 30
0.0
 40
2.0
100
AcDbArc
 50
309.14239131986
 51
359.999997058499
  0
ARC
  5
494
330
1F
100
AcDbEntity
  8
0
  6
CONTINUOUS
 62
     7
100
AcDbCircle
 10
-22.112454565112
 20
-42.95683220533
 30
0.0
 40
2.0
100
AcDbArc
 50
71.999997058889
 51
122.857617847477
  0
DIMENSION
  5
495
330
1F
100
AcDbEntity
  8
BEMASSUNG
  6
CONTINUOUS
 62
    12
100
AcDbDimension
  2
*D230
 10
-54.0
 20
0.0
 30
0.0
 11
-80.043398925276
 21
-9.247915541668
 31
0.0
 70
   164
  3
STANDARD
100
AcDbRadialDimension
 15
-64.728188029115
 25
-5.376428332262
 35
0.0
 40
0.0
1001
ACAD
1000
DSTYLE
1002
{
1070
   141
1040
0.0
1070
   271
1070
     1
1070
    41
1040
1.5
1070
   140
1040
3.0
1002
}
  0
DIMENSION
  5
49F
330
1F
100
AcDbEntity
  8
BEMASSUNG
  6
CONTINUOUS
 62
    12
100
AcDbDimension
  2
*D231
 10
0.0
 20
0.0
 30
0.0
 11
-60.837322023708
 21
-41.338670076117
 31
0.0
 70
   164
  3
STANDARD
100
AcDbRadialDimension
 15
-42.654473178938
 25
-33.114889669561
 35
0.0
 40
0.0
1001
ACAD
1000
DSTYLE
1002
{
1070
   141
1040
0.0
1070
   271
1070
     1
1070
    41
1040
1.5
1070
   140
1040
3.0
1002
}
  0
DIMENSION
  5
4A9
330
1F
100
AcDbEntity
  8
BEMASSUNG
  6
CONTINUOUS
 62
    12
100
AcDbDimension
  2
*D232
 10
-16.686917712554
 20
-79.507775228018
 30
0.0
 11
-35.343458864431
 21
-79.507775228018
 31
0.0
 70
    32
  3
STANDARD
100
AcDbAlignedDimension
 13
-54.000000016307
 23
0.0
 33
0.0
 14
-16.686917712554
 24
0.0
 34
0.0
100
AcDbRotatedDimension
1001
ACAD
1000
DSTYLE
1002
{
1070
   271
1070
     1
1070
    41
1040
1.5
1070
    43
1040
0.40000000596
1070
    42
1040
0.0625
1070
    44
1040
0.180000007153
1070
   140
1040
3.0
1002
}
  0
DIMENSION
  5
4B7
330
1F
100
AcDbEntity
  8
BEMASSUNG
  6
CONTINUOUS
 62
    12
100
AcDbDimension
  2
*D233
 10
6.8523238268
 20
-51.357051879938
 30
0.0
 11
6.852323816267
 21
0.0
 31
0.0
 70
    32
  3
STANDARD
100
AcDbAlignedDimension
 13
-16.686917696247
 23
51.35705187511
 33
0.0
 14
-16.686917696247
 24
-51.357051884766
 34
0.0
 50
90.000000011752
100
AcDbRotatedDimension
1001
ACAD
1000
DSTYLE
1002
{
1070
   271
1070
     1
1070
    41
1040
1.5
1070
    43
1040
0.40000000596
1070
    42
1040
0.0625
1070
    44
1040
0.180000007153
1070
   140
1040
3.0
1002
}
  0
TEXT
  5
4C5
330
1F
100
AcDbEntity
  8
STANDARD
  6
CONTINUOUS
 62
     7
100
AcDbText
 10
-56.455162022054
 20
90.205710045043
 30
0.0
 40
5.0
  1
T15 No 1
  7
ARIAL
100
AcDbText
  0
TEXT
  5
4C6
330
1F
100
AcDbEntity
  8
STANDARD
  6
CONTINUOUS
 62
     7
100
AcDbText
 10
-56.455162022054
 20
82.705710045043
 30
0.0
 40
5.0
  1
43.06.42
  7
ARIAL
100
AcDbText
  0
TEXT
  5
4C7
330
1F
100
AcDbEntity
  8
STANDARD
  6
CONTINUOUS
 62
     7
100
AcDbText
 10
-56.455162022054
 20
75.205710045043
 30
0.0
 40
5.0
  1
Stahl Feinblech DC01 1,0 mm dick
  7
ARIAL
100
AcDbText
  0
LINE
  5
4CB
330
1F
100
AcDbEntity
  8
STANDARD
  6
CONTINUOUS
 62
     7
100
AcDbLine
 10
-4.100203530045
 20
-47.56319088672
 30
0.0
 11
-4.784935282371
 21
-52.887657651006
 31
0.0
  0
LINE
  5
4CC
330
1F
100
AcDbEntity
  8
STANDARD
  6
CONTINUOUS
 62
     7
100
AcDbLine
 10
-4.100203399249
 20
47.563189869649
 30
0.0
 11
-4.784935364967
 21
52.887658293271
 31
0.0
  0
ARC
  5
4CD
330
1F
100
AcDbEntity
  8
STANDARD
  6
CONTINUOUS
 62
     7
100
AcDbCircle
 10
-58.215277777678
 20
12.297619009035
 30
0.0
 40
1.0
100
AcDbArc
 50
288.92027208224
 51
348.07198114561
  0
ARC
  5
4CE
330
1F
100
AcDbEntity
  8
STANDARD
  6
CONTINUOUS
 62
     7
100
AcDbCircle
 10
-58.215277783836
 20
-12.297619021982
 30
0.0
 40
1.0
100
AcDbArc
 50
11.928018865363
 51
71.07972791059
  0
ARC
  5
4CF
330
1F
100
AcDbEntity
  8
STANDARD
  6
CONTINUOUS
 62
     7
100
AcDbCircle
 10
-5.092035464427
 20
47.435639273868
 30
0.0
 40
1.0
100
AcDbArc
 50
287.999997058889
 51
7.328073440202
  0
ARC
  5
4D0
330
1F
100
AcDbEntity
  8
STANDARD
  6
CONTINUOUS
 62
     7
100
AcDbCircle
 10
-29.685243152479
 20
51.565844693733
 30
0.0
 40
1.0
100
AcDbArc
 50
299.928021402807
 51
359.079725451787
  0
ARC
  5
4D1
330
1F
100
AcDbEntity
  8
STANDARD
  6
CONTINUOUS
 62
     7
100
AcDbCircle
 10
-5.092035595224
 20
-47.435640290939
 30
0.0
 40
1.0
100
AcDbArc
 50
352.671926559798
 51
71.999997058891
  0
ARC
  5
4D2
330
1F
100
AcDbEntity
  8
STANDARD
  6
CONTINUOUS
 62
     7
100
AcDbCircle
 10
-29.68524315335
 20
-51.565844693384
 30
0.0
 40
1.0
100
AcDbArc
 50
0.92027454661
 51
60.071978596298
  0
ENDSEC
  0
SECTION
  2
OBJECTS
  0
DICTIONARY
  5
C
330
0
100
AcDbDictionary
  3
ACAD_GROUP
350
D
  3
ACAD_LAYOUT
350
1A
  3
ACAD_MATERIAL
350
43
  3
ACAD_MLEADERSTYLE
350
6B
  3
ACAD_MLINESTYLE
350
17
  3
ACAD_PLOTSETTINGS
350
19
  3
ACAD_SCALELIST
350
47
  3
ACAD_VISUALSTYLE
350
2A
  3
ACDBHEADERROUNDTRIPXREC
350
4D3
  3
ACDBVARIABLEDICTIONARY
350
4F4
  0
DICTIONARY
  5
4FB
330
8
100
AcDbDictionary
280
     1
  3
ACAD_XREC_ROUNDTRIP
360
4FC
  0
DICTIONARY
  5
D
102
{ACAD_REACTORS
330
C
102
}
330
C
100
AcDbDictionary
  0
DICTIONARY
  5
1A
102
{ACAD_REACTORS
330
C
102
}
330
C
100
AcDbDictionary
  0
DICTIONARY
  5
43
102
{ACAD_REACTORS
330
C
102
}
330
C
100
AcDbDictionary
  3
BYBLOCK
350
45
  3
BYLAYER
350
44
  3
GLOBAL
350
46
  0
DICTIONARY
  5
6B
102
{ACAD_REACTORS
330
C
102
}
330
C
100
AcDbDictionary
  3
STANDARD
350
6C
  0
DICTIONARY
  5
17
102
{ACAD_REACTORS
330
C
102
}
330
C
100
AcDbDictionary
  3
STANDARD
350
18
  0
DICTIONARY
  5
19
102
{ACAD_REACTORS
330
C
102
}
330
C
100
AcDbDictionary
  0
DICTIONARY
  5
47
102
{ACAD_REACTORS
330
C
102
}
330
C
100
AcDbDictionary
  3
A0
350
48
  3
A1
350
49
  3
A2
350
4A
  3
A3
350
4B
  3
A4
350
4C
  3
A5
350
4D
  3
A6
350
4E
  3
A7
350
4F
  3
A8
350
50
  3
A9
350
51
  3
B0
350
52
  3
B1
350
53
  3
B2
350
54
  3
B3
350
55
  3
B4
350
56
  3
B5
350
57
  3
B6
350
58
  3
B7
350
59
  3
B8
350
5A
  3
B9
350
5B
  3
C0
350
5C
  3
C1
350
5D
  3
C2
350
5E
  3
C3
350
5F
  3
C4
350
60
  3
C5
350
61
  3
C6
350
62
  3
C7
350
63
  3
C8
350
64
  3
C9
350
65
  3
D0
350
66
  3
D1
350
67
  3
D2
350
68
  0
DICTIONARY
  5
2A
102
{ACAD_REACTORS
330
C
102
}
330
C
100
AcDbDictionary
  3
2DWIREFRAME
350
2F
  3
BASIC
350
32
  3
BRIGHTEN
350
36
  3
COLORCHANGE
350
3A
  3
CONCEPTUAL
350
34
  3
DIM
350
35
  3
EDGECOLOROFF
350
3D
  3
FACEPATTERN
350
39
  3
FLAT
350
2B
  3
FLATWITHEDGES
350
2C
  3
GOURAUD
350
2D
  3
GOURAUDWITHEDGES
350
2E
  3
HIDDEN
350
31
  3
JITTEROFF
350
3B
  3
LINEPATTERN
350
38
  3
OVERHANGOFF
350
3C
  3
REALISTIC
350
33
  3
SHADED
350
42
  3
SHADED_WITH_EDGES
350
41
  3
SHADES_OF_GRAY
350
3E
  3
SKETCHY
350
3F
  3
THICKEN
350
37
  3
WIREFRAME
350
30
  3
X-RAY
350
40
  0
DICTIONARY
  5
4D3
102
{ACAD_REACTORS
330
C
102
}
330
C
100
AcDbDictionary
  3
CEPSNID
350
4DD
  3
CEPSNTYPE
350
4DC
  3
DIMSTYLEDATA
350
4F3
  3
FINGERPRINTGUID
350
4DE
  3
HYPERLINKBASE
350
4D6
  3
INSUNITS
350
4DB
  3
LAYOUTDICT
350
4D8
  3
LWETCUNION
350
4DA
  3
PLOTSETDICT
350
4D9
  3
PSVPSCALE
350
4E0
  3
PUCSBASE
350
4E3
  3
PUCSORGBACK
350
4E9
  3
PUCSORGBOTTOM
350
4E5
  3
PUCSORGFRONT
350
4E8
  3
PUCSORGLEFT
350
4E6
  3
PUCSORGRIGHT
350
4E7
  3
PUCSORGTOP
350
4E4
  3
PUCSORTHOREF
350
4E1
  3
PUCSORTHOVIEW
350
4E2
  3
STYLESHEET
350
4D7
  3
TSTACKALIGN
350
4D4
  3
TSTACKSIZE
350
4D5
  3
UCSBASE
350
4EC
  3
UCSORGBACK
350
4F2
  3
UCSORGBOTTOM
350
4EE
  3
UCSORGFRONT
350
4F1
  3
UCSORGLEFT
350
4EF
  3
UCSORGRIGHT
350
4F0
  3
UCSORGTOP
350
4ED
  3
UCSORTHOREF
350
4EA
  3
UCSORTHOVIEW
350
4EB
  3
VERSIONGUID
350
4DF
  0
DICTIONARY
  5
4F4
102
{ACAD_REACTORS
330
C
102
}
330
C
100
AcDbDictionary
  3
CANNOSCALE
350
4FD
  3
CMLEADERSTYLE
350
4F6
  3
CTABLESTYLE
350
4F5
  3
DIMASSOC
350
4F9
  3
HIDETEXT
350
4FA
  3
MSLTSCALE
350
4FE
  0
XRECORD
  5
4FC
102
{ACAD_REACTORS
330
4FB
102
}
330
4FB
100
AcDbXrecord
102
VTR_0.000_0.000_1.000_1.000_GRIDDISPLAY
 70
     3
102
VTR_0.000_0.000_1.000_1.000_GRIDMAJOR
 70
     5
102
VTR_0.000_0.000_1.000_1.000_DEFAULTLIGHTING
280
     1
102
VTR_0.000_0.000_1.000_1.000_DEFAULTLIGHTINGTYPE
 70
     1
102
VTR_0.000_0.000_1.000_1.000_BRIGHTNESS
141
0.0
102
VTR_0.000_0.000_1.000_1.000_CONTRAST
142
0.0
  0
MATERIAL
  5
45
102
{ACAD_REACTORS
330
43
102
}
102
{ACAD_XDICTIONARY
360
501
102
}
330
43
100
AcDbMaterial
  1
BYBLOCK
  0
MATERIAL
  5
44
102
{ACAD_REACTORS
330
43
102
}
102
{ACAD_XDICTIONARY
360
4FF
102
}
330
43
100
AcDbMaterial
  1
BYLAYER
  0
MATERIAL
  5
46
102
{ACAD_REACTORS
330
43
102
}
102
{ACAD_XDICTIONARY
360
503
102
}
330
43
100
AcDbMaterial
  1
GLOBAL
  0
ACAD_PROXY_OBJECT
  5
6C
102
{ACAD_REACTORS
330
6B
102
}
330
6B
100
AcDbProxyObject
 90
      499
 91
      505
 93
      610
310
40901902A4063FBFFFFFE056BD1B81E855B9FC0AD7A3703D0AD73F4214DD185B99185C9900AD7A3703D0AC73F90141901A02B5E8DC0F42B1CFC02B5E8DC0F42B1CFE5764000000000000300FC0
340
14
340
0
340
11
340
0
 94
        0
1001
ACAD_MLEADERVER
1070
     2
  0
MLINESTYLE
  5
18
102
{ACAD_REACTORS
330
17
102
}
330
17
100
AcDbMlineStyle
  2
Standard
 70
     0
  3

 62
   256
 51
90.0
 52
90.0
 71
     2
 49
0.5
 62
   256
  6
BYLAYER
 49
-0.5
 62
   256
  6
BYLAYER
  0
ACAD_PROXY_OBJECT
  5
48
102
{ACAD_REACTORS
330
47
102
}
330
47
100
AcDbProxyObject
 90
      499
 91
      503
 93
       41
310
903313A31580
  0
ACAD_PROXY_OBJECT
  5
49
102
{ACAD_REACTORS
330
47
102
}
330
47
100
AcDbProxyObject
 90
      499
 91
      503
 93
      105
310
903313A324000000000000004000
  0
ACAD_PROXY_OBJECT
  5
4A
102
{ACAD_REACTORS
330
47
102
}
330
47
100
AcDbProxyObject
 90
      499
 91
      503
 93
      105
310
903313A344000000000000104000
  0
ACAD_PROXY_OBJECT
  5
4B
102
{ACAD_REACTORS
330
47
102
}
330
47
100
AcDbProxyObject
 90
      499
 91
      503
 93
      105
310
903313A354000000000000144000
  0
ACAD_PROXY_OBJECT
  5
4C
102
{ACAD_REACTORS
330
47
102
}
330
47
100
AcDbProxyObject
 90
      499
 91
      503
 93
      105
310
903313A384000000000000204000
  0
ACAD_PROXY_OBJECT
  5
4D
102
{ACAD_REACTORS
330
47
102
}
330
47
100
AcDbProxyObject
 90
      499
 91
      503
 93
      113
310
904313A31304000000000000244000
  0
ACAD_PROXY_OBJECT
  5
4E
102
{ACAD_REACTORS
330
47
102
}
330
47
100
AcDbProxyObject
 90
      499
 91
      503
 93
      113
310
904313A31364000000000000304000
  0
ACAD_PROXY_OBJECT
  5
4F
102
{ACAD_REACTORS
330
47
102
}
330
47
100
AcDbProxyObject
 90
      499
 91
      503
 93
      113
310
904313A32304000000000000344000
  0
ACAD_PROXY_OBJECT
  5
50
102
{ACAD_REACTORS
330
47
102
}
330
47
100
AcDbProxyObject
 90
      499
 91
      503
 93
      113
310
904313A333040000000000003E4000
  0
ACAD_PROXY_OBJECT
  5
51
102
{ACAD_REACTORS
330
47
102
}
330
47
100
AcDbProxyObject
 90
      499
 91
      503
 93
      113
310
904313A34304000000000000444000
  0
ACAD_PROXY_OBJECT
  5
52
102
{ACAD_REACTORS
330
47
102
}
330
47
100
AcDbProxyObject
 90
      499
 91
      503
 93
      113
310
904313A35304000000000000494000
  0
ACAD_PROXY_OBJECT
  5
53
102
{ACAD_REACTORS
330
47
102
}
330
47
100
AcDbProxyObject
 90
      499
 91
      503
 93
      121
310
905313A3130304000000000000594000
  0
ACAD_PROXY_OBJECT
  5
54
102
{ACAD_REACTORS
330
47
102
}
330
47
100
AcDbProxyObject
 90
      499
 91
      503
 93
      105
310
903323A310000000000000010100
  0
ACAD_PROXY_OBJECT
  5
55
102
{ACAD_REACTORS
330
47
102
}
330
47
100
AcDbProxyObject
 90
      499
 91
      503
 93
      105
310
903343A310000000000000410100
  0
ACAD_PROXY_OBJECT
  5
56
102
{ACAD_REACTORS
330
47
102
}
330
47
100
AcDbProxyObject
 90
      499
 91
      503
 93
      105
310
903383A310000000000000810100
  0
ACAD_PROXY_OBJECT
  5
57
102
{ACAD_REACTORS
330
47
102
}
330
47
100
AcDbProxyObject
 90
      499
 91
      503
 93
      113
310
90431303A310000000000000910100
  0
ACAD_PROXY_OBJECT
  5
58
102
{ACAD_REACTORS
330
47
102
}
330
47
100
AcDbProxyObject
 90
      499
 91
      503
 93
      121
310
9053130303A310000000000001650100
  0
ACAD_PROXY_OBJECT
  5
59
102
{ACAD_REACTORS
330
47
102
}
330
47
100
AcDbProxyObject
 90
      499
 91
      503
 93
      257
310
90E312F31323822203D2031272D3022000000000000200FC000000000000284000
  0
ACAD_PROXY_OBJECT
  5
5A
102
{ACAD_REACTORS
330
47
102
}
330
47
100
AcDbProxyObject
 90
      499
 91
      503
 93
      249
310
90D312F363422203D2031272D3022000000000000240FC000000000000284000
  0
ACAD_PROXY_OBJECT
  5
5B
102
{ACAD_REACTORS
330
47
102
}
330
47
100
AcDbProxyObject
 90
      499
 91
      503
 93
      249
310
90D312F333222203D2031272D3022000000000000280FC000000000000284000
  0
ACAD_PROXY_OBJECT
  5
5C
102
{ACAD_REACTORS
330
47
102
}
330
47
100
AcDbProxyObject
 90
      499
 91
      503
 93
      249
310
90D312F313622203D2031272D30220000000000002C0FC000000000000284000
  0
ACAD_PROXY_OBJECT
  5
5D
102
{ACAD_REACTORS
330
47
102
}
330
47
100
AcDbProxyObject
 90
      499
 91
      503
 93
      249
310
90D332F333222203D2031272D30220000000000002E0FC000000000000284000
  0
ACAD_PROXY_OBJECT
  5
5E
102
{ACAD_REACTORS
330
47
102
}
330
47
100
AcDbProxyObject
 90
      499
 91
      503
 93
      241
310
90C312F3822203D2031272D3022000000000000300FC000000000000284000
  0
ACAD_PROXY_OBJECT
  5
5F
102
{ACAD_REACTORS
330
47
102
}
330
47
100
AcDbProxyObject
 90
      499
 91
      503
 93
      249
310
90D332F313622203D2031272D3022000000000000320FC000000000000284000
  0
ACAD_PROXY_OBJECT
  5
60
102
{ACAD_REACTORS
330
47
102
}
330
47
100
AcDbProxyObject
 90
      499
 91
      503
 93
      241
310
90C312F3422203D2031272D3022000000000000340FC000000000000284000
  0
ACAD_PROXY_OBJECT
  5
61
102
{ACAD_REACTORS
330
47
102
}
330
47
100
AcDbProxyObject
 90
      499
 91
      503
 93
      241
310
90C332F3822203D2031272D3022000000000000360FC000000000000284000
  0
ACAD_PROXY_OBJECT
  5
62
102
{ACAD_REACTORS
330
47
102
}
330
47
100
AcDbProxyObject
 90
      499
 91
      503
 93
      241
310
90C312F3222203D2031272D3022000000000000380FC000000000000284000
  0
ACAD_PROXY_OBJECT
  5
63
102
{ACAD_REACTORS
330
47
102
}
330
47
100
AcDbProxyObject
 90
      499
 91
      503
 93
      241
310
90C332F3422203D2031272D30220000000000003A0FC000000000000284000
  0
ACAD_PROXY_OBJECT
  5
64
102
{ACAD_REACTORS
330
47
102
}
330
47
100
AcDbProxyObject
 90
      499
 91
      503
 93
      161
310
90A3122203D2031272D30224000000000000284000
  0
ACAD_PROXY_OBJECT
  5
65
102
{ACAD_REACTORS
330
47
102
}
330
47
100
AcDbProxyObject
 90
      499
 91
      503
 93
      257
310
90E312D312F3222203D2031272D30220000000000003E0FC000000000000284000
  0
ACAD_PROXY_OBJECT
  5
66
102
{ACAD_REACTORS
330
47
102
}
330
47
100
AcDbProxyObject
 90
      499
 91
      503
 93
      225
310
90A3322203D2031272D302200000000000002100000000000000284000
  0
ACAD_PROXY_OBJECT
  5
67
102
{ACAD_REACTORS
330
47
102
}
330
47
100
AcDbProxyObject
 90
      499
 91
      503
 93
      225
310
90A3622203D2031272D302200000000000006100000000000000284000
  0
ACAD_PROXY_OBJECT
  5
68
102
{ACAD_REACTORS
330
47
102
}
330
47
100
AcDbProxyObject
 90
      499
 91
      503
 93
      249
310
90D31272D3022203D2031272D30220000000000000A100000000000000284000
  0
ACAD_PROXY_OBJECT
  5
2F
102
{ACAD_REACTORS
330
2A
102
}
330
2A
100
AcDbProxyObject
 90
      499
 91
      501
 93
      436
310
42CC9915DA5C99599C985B595049028333333333333E33F0000000000000F90107901411070040501600405405064090741402480A0340
1001
ACAD
1000
AcDbSavedByObjectVersion
1070
     0
  0
ACAD_PROXY_OBJECT
  5
32
102
{ACAD_REACTORS
330
2A
102
}
330
2A
100
AcDbProxyObject
 90
      499
 91
      501
 93
      388
310
4150985CDA58D07406404333333333333E33F0000000000000F90107A41107004050150841D405064090741402480A0350
1001
ACAD
1000
AcDbSavedByObjectVersion
1070
     0
  0
ACAD_PROXY_OBJECT
  5
36
102
{ACAD_REACTORS
330
2A
102
}
330
2A
100
AcDbProxyObject
 90
      499
 91
      501
 93
      428
310
42109C9A59DA1D195B90C409028333333333333E33F0000000000000F9010790141107004050150841D405064090741402480A029950
1001
ACAD
1000
AcDbSavedByObjectVersion
1070
     0
  0
ACAD_PROXY_OBJECT
  5
3A
102
{ACAD_REACTORS
330
2A
102
}
330
2A
100
AcDbProxyObject
 90
      499
 91
      501
 93
      452
310
42D0DBDB1BDC90DA185B99D95104090240C333333333333E33F0000000000000F90108901411070040501508421405064090741402480A0350
1001
ACAD
1000
AcDbSavedByObjectVersion
1070
     0
  0
ACAD_PROXY_OBJECT
  5
34
102
{ACAD_REACTORS
330
2A
102
}
330
2A
100
AcDbProxyObject
 90
      499
 91
      501
 93
      500
310
4290DBDB98D95C1D1D585B10940D028333333333333E33F0000000000000F90107902409070040501000000000018199010841D405064090740C02480A0340
1001
ACAD
1000
AcDbSavedByObjectVersion
1070
     0
  0
ACAD_PROXY_OBJECT
  5
35
102
{ACAD_REACTORS
330
2A
102
}
330
2A
100
AcDbProxyObject
 90
      499
 91
      501
 93
      412
310
40D11A5B50B409028333333333333E33F0000000000000F9010790141107004050150841D405064090741402480A02677FFFFFD0
1001
ACAD
1000
AcDbSavedByObjectVersion
1070
     0
  0
ACAD_PROXY_OBJECT
  5
3D
102
{ACAD_REACTORS
330
2A
102
}
330
2A
100
AcDbProxyObject
 90
      499
 91
      501
 93
      452
310
43115919D950DBDB1BDC93D999916409028333333333333E33F0000000000000F9010790141107004050150841D405064090741402480A0350
1001
ACAD
1000
AcDbSavedByObjectVersion
1070
     0
  0
ACAD_PROXY_OBJECT
  5
39
102
{ACAD_REACTORS
330
2A
102
}
330
2A
100
AcDbProxyObject
 90
      499
 91
      501
 93
      444
310
42D19858D95C185D1D195C9B90F409028333333333333E33F0000000000000F9010790141107004050150841D405064090741402480A0350
1001
ACAD
1000
AcDbSavedByObjectVersion
1070
     0
  0
ACAD_PROXY_OBJECT
  5
2B
102
{ACAD_REACTORS
330
2A
102
}
330
2A
100
AcDbProxyObject
 90
      499
 91
      501
 93
      380
310
41119B185D240901404333333333333E33F0000000000000F9010740A907004050150841D405064090741402480A1B50
1001
ACAD
1000
AcDbSavedByObjectVersion
1070
     0
  0
ACAD_PROXY_OBJECT
  5
2C
102
{ACAD_REACTORS
330
2A
102
}
330
2A
100
AcDbProxyObject
 90
      499
 91
      501
 93
      468
310
43519B185D15DA5D1A115919D95CD0140901404333333333333E33F0000000000000F90107409019070040501600405405064090741402480A1B50
1001
ACAD
1000
AcDbSavedByObjectVersion
1070
     0
  0
ACAD_PROXY_OBJECT
  5
2D
102
{ACAD_REACTORS
330
2A
102
}
330
2A
100
AcDbProxyObject
 90
      499
 91
      501
 93
      404
310
41D1DBDD5C985D5910240902404333333333333E33F0000000000000F9010740A9070040501641D405064090741402480A1B50
1001
ACAD
1000
AcDbSavedByObjectVersion
1070
     0
  0
ACAD_PROXY_OBJECT
  5
2E
102
{ACAD_REACTORS
330
2A
102
}
330
2A
100
AcDbProxyObject
 90
      499
 91
      501
 93
      492
310
4411DBDD5C985D5915DA5D1A115919D95CD0340902404333333333333E33F0000000000000F90107409019070040501600405405064090741402480A1B50
1001
ACAD
1000
AcDbSavedByObjectVersion
1070
     0
  0
ACAD_PROXY_OBJECT
  5
31
102
{ACAD_REACTORS
330
2A
102
}
330
2A
100
AcDbProxyObject
 90
      499
 91
      501
 93
      476
310
41921A5919195B90640502408333333333333E33F0000000000000F901079024090700405020000000000001110200405405064090740C02480A0340
1001
ACAD
1000
AcDbSavedByObjectVersion
1070
     0
  0
ACAD_PROXY_OBJECT
  5
3B
102
{ACAD_REACTORS
330
2A
102
}
330
2A
100
AcDbProxyObject
 90
      499
 91
      501
 93
      428
310
42529A5D1D195C93D999914409028333333333333E33F0000000000000F9010790141107004050150A41D405064090741402480A0350
1001
ACAD
1000
AcDbSavedByObjectVersion
1070
     0
  0
ACAD_PROXY_OBJECT
  5
38
102
{ACAD_REACTORS
330
2A
102
}
330
2A
100
AcDbProxyObject
 90
      499
 91
      501
 93
      444
310
42D31A5B995C185D1D195C9B90E409028333333333333E33F0000000000000F9010790141107004050750841D405064090741402483A0350
1001
ACAD
1000
AcDbSavedByObjectVersion
1070
     0
  0
ACAD_PROXY_OBJECT
  5
3C
102
{ACAD_REACTORS
330
2A
102
}
330
2A
100
AcDbProxyObject
 90
      499
 91
      501
 93
      444
310
42D3DD995C9A185B99D3D999915409028333333333333E33F0000000000000F9010790141107004050150941D405064090741402480A0350
1001
ACAD
1000
AcDbSavedByObjectVersion
1070
     0
  0
ACAD_PROXY_OBJECT
  5
33
102
{ACAD_REACTORS
330
2A
102
}
330
2A
100
AcDbProxyObject
 90
      499
 91
      501
 93
      428
310
425499585B1A5CDD1A58D08409038333333333333E33F0000000000000F9010740A907004050150800405405064090740C02480A1B40
1001
ACAD
1000
AcDbSavedByObjectVersion
1070
     0
  0
ACAD_PROXY_OBJECT
  5
42
102
{ACAD_REACTORS
330
2A
102
}
330
2A
100
AcDbProxyObject
 90
      499
 91
      501
 93
      420
310
4194DA1859195911B40902404333333333333E33F0000000000000F9010740A41107004050150800405405064090840C02480A0B40
1001
ACAD
1000
AcDbSavedByObjectVersion
1070
     0
  0
ACAD_PROXY_OBJECT
  5
41
102
{ACAD_REACTORS
330
2A
102
}
330
2A
100
AcDbProxyObject
 90
      499
 91
      501
 93
      516
310
4454DA18591959081DDA5D1A08195919D95CD1A40902404333333333333E33F0000000000000F901074090142907004050250800405405064090740C02480A0B40
1001
ACAD
1000
AcDbSavedByObjectVersion
1070
     0
  0
ACAD_PROXY_OBJECT
  5
3E
102
{ACAD_REACTORS
330
2A
102
}
330
2A
100
AcDbProxyObject
 90
      499
 91
      501
 93
      532
310
4394DA1859195CC81BD98811DC985E5174090240C333333333333E33F0000000000000F901079024090741D01000000000000111010841D405064090740C02480A0340
1001
ACAD
1000
AcDbSavedByObjectVersion
1070
     0
  0
ACAD_PROXY_OBJECT
  5
3F
102
{ACAD_REACTORS
330
2A
102
}
330
2A
100
AcDbProxyObject
 90
      499
 91
      501
 93
      476
310
41D4DAD95D18DA1E51840502408333333333333E33F0000000000000F901079024090741D01000000000000111010B41D405064090741802480A0340
1001
ACAD
1000
AcDbSavedByObjectVersion
1070
     0
  0
ACAD_PROXY_OBJECT
  5
37
102
{ACAD_REACTORS
330
2A
102
}
330
2A
100
AcDbProxyObject
 90
      499
 91
      501
 93
      412
310
41D51A1A58DAD95B90D409028333333333333E33F0000000000000F9010790141107004050150C41D405064090741402480A0350
1001
ACAD
1000
AcDbSavedByObjectVersion
1070
     0
  0
ACAD_PROXY_OBJECT
  5
30
102
{ACAD_REACTORS
330
2A
102
}
330
2A
100
AcDbProxyObject
 90
      499
 91
      501
 93
      420
310
4255DA5C99599C985B595059028333333333333E33F0000000000000F90107901411070040501600405405064090740C02480A0340
1001
ACAD
1000
AcDbSavedByObjectVersion
1070
     0
  0
ACAD_PROXY_OBJECT
  5
40
102
{ACAD_REACTORS
330
2A
102
}
330
2A
100
AcDbProxyObject
 90
      499
 91
      501
 93
      404
310
41560B54985E51940902404000000000000E03F0000000000000F9010740501907004050150841D405064090740C02480A1B40
1001
ACAD
1000
AcDbSavedByObjectVersion
1070
     0
  0
XRECORD
  5
4DD
102
{ACAD_REACTORS
330
4D3
102
}
330
4D3
100
AcDbXrecord
340
0
  0
XRECORD
  5
4DC
102
{ACAD_REACTORS
330
4D3
102
}
330
4D3
100
AcDbXrecord
 90
        0
  0
XRECORD
  5
4F3
102
{ACAD_REACTORS
330
4D3
102
}
330
4D3
100
AcDbXrecord
1000
DSTYLE
1002
{
1070
   340
340
11
1002
}
  0
XRECORD
  5
4DE
102
{ACAD_REACTORS
330
4D3
102
}
330
4D3
100
AcDbXrecord
  1
{9974A65A-BD78-4EFA-B034-682E3C859BFB}
  0
XRECORD
  5
4D6
102
{ACAD_REACTORS
330
4D3
102
}
330
4D3
100
AcDbXrecord
  1

  0
XRECORD
  5
4DB
102
{ACAD_REACTORS
330
4D3
102
}
330
4D3
100
AcDbXrecord
 90
        0
  0
XRECORD
  5
4D8
102
{ACAD_REACTORS
330
4D3
102
}
330
4D3
100
AcDbXrecord
340
1A
  0
XRECORD
  5
4DA
102
{ACAD_REACTORS
330
4D3
102
}
330
4D3
100
AcDbXrecord
 90
    10781
  0
XRECORD
  5
4D9
102
{ACAD_REACTORS
330
4D3
102
}
330
4D3
100
AcDbXrecord
340
19
  0
XRECORD
  5
4E0
102
{ACAD_REACTORS
330
4D3
102
}
330
4D3
100
AcDbXrecord
 40
0.0
  0
XRECORD
  5
4E3
102
{ACAD_REACTORS
330
4D3
102
}
330
4D3
100
AcDbXrecord
340
0
  0
XRECORD
  5
4E9
102
{ACAD_REACTORS
330
4D3
102
}
330
4D3
100
AcDbXrecord
 10
0.0
 20
0.0
 30
0.0
  0
XRECORD
  5
4E5
102
{ACAD_REACTORS
330
4D3
102
}
330
4D3
100
AcDbXrecord
 10
0.0
 20
0.0
 30
0.0
  0
XRECORD
  5
4E8
102
{ACAD_REACTORS
330
4D3
102
}
330
4D3
100
AcDbXrecord
 10
0.0
 20
0.0
 30
0.0
  0
XRECORD
  5
4E6
102
{ACAD_REACTORS
330
4D3
102
}
330
4D3
100
AcDbXrecord
 10
0.0
 20
0.0
 30
0.0
  0
XRECORD
  5
4E7
102
{ACAD_REACTORS
330
4D3
102
}
330
4D3
100
AcDbXrecord
 10
0.0
 20
0.0
 30
0.0
  0
XRECORD
  5
4E4
102
{ACAD_REACTORS
330
4D3
102
}
330
4D3
100
AcDbXrecord
 10
0.0
 20
0.0
 30
0.0
  0
XRECORD
  5
4E1
102
{ACAD_REACTORS
330
4D3
102
}
330
4D3
100
AcDbXrecord
340
0
  0
XRECORD
  5
4E2
102
{ACAD_REACTORS
330
4D3
102
}
330
4D3
100
AcDbXrecord
 70
     0
  0
XRECORD
  5
4D7
102
{ACAD_REACTORS
330
4D3
102
}
330
4D3
100
AcDbXrecord
  1

  0
XRECORD
  5
4D4
102
{ACAD_REACTORS
330
4D3
102
}
330
4D3
100
AcDbXrecord
 90
        1
  0
XRECORD
  5
4D5
102
{ACAD_REACTORS
330
4D3
102
}
330
4D3
100
AcDbXrecord
 90
       70
  0
XRECORD
  5
4EC
102
{ACAD_REACTORS
330
4D3
102
}
330
4D3
100
AcDbXrecord
340
0
  0
XRECORD
  5
4F2
102
{ACAD_REACTORS
330
4D3
102
}
330
4D3
100
AcDbXrecord
 10
0.0
 20
0.0
 30
0.0
  0
XRECORD
  5
4EE
102
{ACAD_REACTORS
330
4D3
102
}
330
4D3
100
AcDbXrecord
 10
0.0
 20
0.0
 30
0.0
  0
XRECORD
  5
4F1
102
{ACAD_REACTORS
330
4D3
102
}
330
4D3
100
AcDbXrecord
 10
0.0
 20
0.0
 30
0.0
  0
XRECORD
  5
4EF
102
{ACAD_REACTORS
330
4D3
102
}
330
4D3
100
AcDbXrecord
 10
0.0
 20
0.0
 30
0.0
  0
XRECORD
  5
4F0
102
{ACAD_REACTORS
330
4D3
102
}
330
4D3
100
AcDbXrecord
 10
0.0
 20
0.0
 30
0.0
  0
XRECORD
  5
4ED
102
{ACAD_REACTORS
330
4D3
102
}
330
4D3
100
AcDbXrecord
 10
0.0
 20
0.0
 30
0.0
  0
XRECORD
  5
4EA
102
{ACAD_REACTORS
330
4D3
102
}
330
4D3
100
AcDbXrecord
340
0
  0
XRECORD
  5
4EB
102
{ACAD_REACTORS
330
4D3
102
}
330
4D3
100
AcDbXrecord
 70
     0
  0
XRECORD
  5
4DF
102
{ACAD_REACTORS
330
4D3
102
}
330
4D3
100
AcDbXrecord
  1
{FAEB1C32-E019-11D5-929B-00C0DF256EC4}
  0
DICTIONARYVAR
  5
4FD
102
{ACAD_REACTORS
330
4F4
102
}
330
4F4
100
DictionaryVariables
280
     0
  1
1:1
  0
DICTIONARYVAR
  5
4F6
102
{ACAD_REACTORS
330
4F4
102
}
330
4F4
100
DictionaryVariables
280
     0
  1
Standard
  0
DICTIONARYVAR
  5
4F5
102
{ACAD_REACTORS
330
4F4
102
}
330
4F4
100
DictionaryVariables
280
     0
  1
Standard
  0
DICTIONARYVAR
  5
4F9
102
{ACAD_REACTORS
330
4F4
102
}
330
4F4
100
DictionaryVariables
280
     0
  1
2
  0
DICTIONARYVAR
  5
4FA
102
{ACAD_REACTORS
330
4F4
102
}
330
4F4
100
DictionaryVariables
280
     0
  1
1
  0
DICTIONARYVAR
  5
4FE
102
{ACAD_REACTORS
330
4F4
102
}
330
4F4
100
DictionaryVariables
280
     0
  1
1
  0
DICTIONARY
  5
501
330
45
100
AcDbDictionary
280
     1
  3
ACAD_XREC_ROUNDTRIP
360
502
  0
DICTIONARY
  5
4FF
330
44
100
AcDbDictionary
280
     1
  3
ACAD_XREC_ROUNDTRIP
360
500
  0
DICTIONARY
  5
503
330
46
100
AcDbDictionary
280
     1
  3
ACAD_XREC_ROUNDTRIP
360
504
  0
XRECORD
  5
502
102
{ACAD_REACTORS
330
501
102
}
330
501
100
AcDbXrecord
102
MATERIAL
148
0.0
149
0.0
149
0.0
 93
        0
 94
      127
282
     0
 72
     1
 77
     1
171
     1
175
     1
179
     1
273
     0
  0
XRECORD
  5
500
102
{ACAD_REACTORS
330
4FF
102
}
330
4FF
100
AcDbXrecord
102
MATERIAL
148
0.0
149
0.0
149
0.0
 93
        0
 94
      127
282
     0
 72
     1
 77
     1
171
     1
175
     1
179
     1
273
     0
  0
XRECORD
  5
504
102
{ACAD_REACTORS
330
503
102
}
330
503
100
AcDbXrecord
102
MATERIAL
148
0.0
149
0.0
149
0.0
 93
        0
 94
      127
282
     0
 72
     1
 77
     1
171
     1
175
     1
179
     1
273
     0
  0
ENDSEC
  0
EOF
