  0
SECTION
  2
HEADER
  9
$ACADVER
  1
AC1014
  9
$ACADMAINTVER
 70
     9
  9
$DWGCODEPAGE
  3
ANSI_1252
  9
$INSBASE
 10
0.0
 20
0.0
 30
0.0
  9
$EXTMIN
 10
-83.771204739209
 20
-12.0
 30
0.0
  9
$EXTMAX
 10
19.463432632673
 20
106.276089260877
 30
0.0
  9
$LIMMIN
 10
0.0
 20
0.0
  9
$LIMMAX
 10
12.0
 20
9.0
  9
$ORTHOMODE
 70
     0
  9
$REGENMODE
 70
     1
  9
$FILLMODE
 70
     1
  9
$QTEXTMODE
 70
     0
  9
$MIRRTEXT
 70
     1
  9
$DRAGMODE
 70
     2
  9
$LTSCALE
 40
1.0
  9
$OSMODE
 70
    37
  9
$ATTMODE
 70
     1
  9
$TEXTSIZE
 40
0.2
  9
$TRACEWID
 40
0.05
  9
$TEXTSTYLE
  7
STANDARD
  9
$CLAYER
  8
0
  9
$CELTYPE
  6
BYLAYER
  9
$CECOLOR
 62
   256
  9
$CELTSCALE
 40
1.0
  9
$DELOBJ
 70
     1
  9
$DISPSILH
 70
     0
  9
$DIMSCALE
 40
1.0
  9
$DIMASZ
 40
0.18
  9
$DIMEXO
 40
0.0625
  9
$DIMDLI
 40
0.38
  9
$DIMRND
 40
0.0
  9
$DIMDLE
 40
0.0
  9
$DIMEXE
 40
0.18
  9
$DIMTP
 40
0.0
  9
$DIMTM
 40
0.0
  9
$DIMTXT
 40
0.18
  9
$DIMCEN
 40
0.09
  9
$DIMTSZ
 40
0.0
  9
$DIMTOL
 70
     0
  9
$DIMLIM
 70
     0
  9
$DIMTIH
 70
     1
  9
$DIMTOH
 70
     1
  9
$DIMSE1
 70
     0
  9
$DIMSE2
 70
     0
  9
$DIMTAD
 70
     0
  9
$DIMZIN
 70
     0
  9
$DIMBLK
  1

  9
$DIMASO
 70
     1
  9
$DIMSHO
 70
     1
  9
$DIMPOST
  1

  9
$DIMAPOST
  1

  9
$DIMALT
 70
     0
  9
$DIMALTD
 70
     2
  9
$DIMALTF
 40
25.4
  9
$DIMLFAC
 40
1.0
  9
$DIMTOFL
 70
     0
  9
$DIMTVP
 40
0.0
  9
$DIMTIX
 70
     0
  9
$DIMSOXD
 70
     0
  9
$DIMSAH
 70
     0
  9
$DIMBLK1
  1

  9
$DIMBLK2
  1

  9
$DIMSTYLE
  2
STANDARD
  9
$DIMCLRD
 70
     0
  9
$DIMCLRE
 70
     0
  9
$DIMCLRT
 70
     0
  9
$DIMTFAC
 40
1.0
  9
$DIMGAP
 40
0.09
  9
$DIMJUST
 70
     0
  9
$DIMSD1
 70
     0
  9
$DIMSD2
 70
     0
  9
$DIMTOLJ
 70
     1
  9
$DIMTZIN
 70
     0
  9
$DIMALTZ
 70
     0
  9
$DIMALTTZ
 70
     0
  9
$DIMFIT
 70
     3
  9
$DIMUPT
 70
     0
  9
$DIMUNIT
 70
     2
  9
$DIMDEC
 70
     4
  9
$DIMTDEC
 70
     4
  9
$DIMALTU
 70
     2
  9
$DIMALTTD
 70
     2
  9
$DIMTXSTY
  7
STANDARD
  9
$DIMAUNIT
 70
     0
  9
$LUNITS
 70
     2
  9
$LUPREC
 70
     4
  9
$SKETCHINC
 40
0.1
  9
$FILLETRAD
 40
0.5
  9
$AUNITS
 70
     0
  9
$AUPREC
 70
     0
  9
$MENU
  1
.
  9
$ELEVATION
 40
0.0
  9
$PELEVATION
 40
0.0
  9
$THICKNESS
 40
0.0
  9
$LIMCHECK
 70
     0
  9
$CHAMFERA
 40
0.0
  9
$CHAMFERB
 40
0.0
  9
$CHAMFERC
 40
0.0
  9
$CHAMFERD
 40
0.0
  9
$SKPOLY
 70
     0
  9
$TDCREATE
 40
2458536.434332118
  9
$TDUPDATE
 40
2458536.434332349
  9
$TDINDWG
 40
0.0000000116
  9
$TDUSRTIMER
 40
0.0000000116
  9
$USRTIMER
 70
     1
  9
$ANGBASE
 50
0.0
  9
$ANGDIR
 70
     0
  9
$PDMODE
 70
     0
  9
$PDSIZE
 40
0.0
  9
$PLINEWID
 40
0.0
  9
$COORDS
 70
     1
  9
$SPLFRAME
 70
     0
  9
$SPLINETYPE
 70
     6
  9
$SPLINESEGS
 70
     8
  9
$ATTDIA
 70
     0
  9
$ATTREQ
 70
     1
  9
$HANDLING
 70
     1
  9
$HANDSEED
  5
4AB
  9
$SURFTAB1
 70
     6
  9
$SURFTAB2
 70
     6
  9
$SURFTYPE
 70
     6
  9
$SURFU
 70
     6
  9
$SURFV
 70
     6
  9
$UCSNAME
  2

  9
$UCSORG
 10
0.0
 20
0.0
 30
0.0
  9
$UCSXDIR
 10
1.0
 20
0.0
 30
0.0
  9
$UCSYDIR
 10
0.0
 20
1.0
 30
0.0
  9
$PUCSNAME
  2

  9
$PUCSORG
 10
0.0
 20
0.0
 30
0.0
  9
$PUCSXDIR
 10
1.0
 20
0.0
 30
0.0
  9
$PUCSYDIR
 10
0.0
 20
1.0
 30
0.0
  9
$USERI1
 70
     0
  9
$USERI2
 70
     0
  9
$USERI3
 70
     0
  9
$USERI4
 70
     0
  9
$USERI5
 70
     0
  9
$USERR1
 40
0.0
  9
$USERR2
 40
0.0
  9
$USERR3
 40
0.0
  9
$USERR4
 40
0.0
  9
$USERR5
 40
0.0
  9
$WORLDVIEW
 70
     1
  9
$SHADEDGE
 70
     3
  9
$SHADEDIF
 70
    70
  9
$TILEMODE
 70
     1
  9
$MAXACTVP
 70
    64
  9
$PINSBASE
 10
0.0
 20
0.0
 30
0.0
  9
$PLIMCHECK
 70
     0
  9
$PEXTMIN
 10
1.000000000000E+20
 20
1.000000000000E+20
 30
1.000000000000E+20
  9
$PEXTMAX
 10
-1.000000000000E+20
 20
-1.000000000000E+20
 30
-1.000000000000E+20
  9
$PLIMMIN
 10
0.0
 20
0.0
  9
$PLIMMAX
 10
12.0
 20
9.0
  9
$UNITMODE
 70
     0
  9
$VISRETAIN
 70
     1
  9
$PLINEGEN
 70
     0
  9
$PSLTSCALE
 70
     1
  9
$TREEDEPTH
 70
  3020
  9
$PICKSTYLE
 70
     1
  9
$CMLSTYLE
  2
STANDARD
  9
$CMLJUST
 70
     0
  9
$CMLSCALE
 40
1.0
  9
$PROXYGRAPHICS
 70
     1
  9
$MEASUREMENT
 70
     0
  0
ENDSEC
  0
SECTION
  2
CLASSES
  0
CLASS
  1
ACDBDICTIONARYWDFLT
  2
AcDbDictionaryWithDefault
  3
ObjectDBX Classes
 90
        0
280
     0
281
     0
  0
CLASS
  1
VISUALSTYLE
  2
AcDbVisualStyle
  3
ObjectDBX Classes
 90
     4095
280
     0
281
     0
  0
CLASS
  1
MATERIAL
  2
AcDbMaterial
  3
ObjectDBX Classes
 90
     1153
280
     0
281
     0
  0
CLASS
  1
SCALE
  2
AcDbScale
  3
ObjectDBX Classes
 90
     1153
280
     0
281
     0
  0
CLASS
  1
TABLESTYLE
  2
AcDbTableStyle
  3
ObjectDBX Classes
 90
     4095
280
     0
281
     0
  0
CLASS
  1
MLEADERSTYLE
  2
AcDbMLeaderStyle
  3
ACDB_MLEADERSTYLE_CLASS
 90
     4095
280
     0
281
     0
  0
CLASS
  1
SUN
  2
AcDbSun
  3
SCENEOE
 90
     1153
280
     0
281
     0
  0
CLASS
  1
DICTIONARYVAR
  2
AcDbDictionaryVar
  3
ObjectDBX Classes
 90
        0
280
     0
281
     0
  0
CLASS
  1
XRECORD
  2
AcDbXrecord
  3
ObjectDBX Classes
 90
        0
280
     0
281
     0
  0
CLASS
  1
LWPOLYLINE
  2
AcDbPolyline
  3
ObjectDBX Classes
 90
        0
280
     0
281
     1
  0
CLASS
  1
HATCH
  2
AcDbHatch
  3
ObjectDBX Classes
 90
        0
280
     0
281
     1
  0
CLASS
  1
ACDBPLACEHOLDER
  2
AcDbPlaceHolder
  3
ObjectDBX Classes
 90
        0
280
     0
281
     0
  0
CLASS
  1
LAYOUT
  2
AcDbLayout
  3
ObjectDBX Classes
 90
        0
280
     0
281
     0
  0
ENDSEC
  0
SECTION
  2
TABLES
  0
TABLE
  2
VPORT
  5
8
102
{ACAD_XDICTIONARY
360
4A0
102
}
330
0
100
AcDbSymbolTable
 70
     1
  0
VPORT
  5
29
330
8
100
AcDbSymbolTableRecord
100
AcDbViewportTableRecord
  2
*ACTIVE
 70
     0
 10
0.0
 20
0.0
 11
1.0
 21
1.0
 12
-32.153886053268
 22
47.138044630439
 13
0.0
 23
0.0
 14
0.5
 24
0.5
 15
0.5
 25
0.5
 16
0.0
 26
0.0
 36
1.0
 17
0.0
 27
0.0
 37
0.0
 40
118.276089260877
 41
0.87282761898
 42
50.0
 43
0.0
 44
0.0
 50
0.0
 51
0.0
 71
     0
 72
 20000
 73
     1
 74
     3
 75
     0
 76
     0
 77
     0
 78
     0
  0
ENDTAB
  0
TABLE
  2
LTYPE
  5
5
330
0
100
AcDbSymbolTable
 70
    22
  0
LTYPE
  5
14
330
5
100
AcDbSymbolTableRecord
100
AcDbLinetypeTableRecord
  2
BYBLOCK
 70
     0
  3

 72
    65
 73
     0
 40
0.0
  0
LTYPE
  5
15
330
5
100
AcDbSymbolTableRecord
100
AcDbLinetypeTableRecord
  2
BYLAYER
 70
     0
  3

 72
    65
 73
     0
 40
0.0
  0
LTYPE
  5
16
330
5
100
AcDbSymbolTableRecord
100
AcDbLinetypeTableRecord
  2
CONTINUOUS
 70
     0
  3
Solid line
 72
    65
 73
     0
 40
0.0
  0
LTYPE
  5
71
330
5
100
AcDbSymbolTableRecord
100
AcDbLinetypeTableRecord
  2
CENTER_LINE
 70
     0
  3

 72
    65
 73
     5
 40
50.799999237061
 49
15.239999771118
 74
     0
 49
-5.079999923706
 74
     0
 49
10.159999847412
 74
     0
 49
-5.079999923706
 74
     0
 49
15.239999771118
 74
     0
  0
LTYPE
  5
72
330
5
100
AcDbSymbolTableRecord
100
AcDbLinetypeTableRecord
  2
DASH
 70
     0
  3

 72
    65
 73
     3
 40
50.799999237061
 49
12.699999809265
 74
     0
 49
-25.39999961853
 74
     0
 49
12.699999809265
 74
     0
  0
LTYPE
  5
73
330
5
100
AcDbSymbolTableRecord
100
AcDbLinetypeTableRecord
  2
DIAGONAL_50_50
 70
     0
  3

 72
    65
 73
     3
 40
35.92102432251
 49
8.980256080627
 74
     0
 49
-17.960512161255
 74
     0
 49
8.980256080627
 74
     0
  0
LTYPE
  5
74
330
5
100
AcDbSymbolTableRecord
100
AcDbLinetypeTableRecord
  2
ORTHO_50_50
 70
     0
  3

 72
    65
 73
     3
 40
25.39999961853
 49
6.349999904633
 74
     0
 49
-12.699999809265
 74
     0
 49
6.349999904633
 74
     0
  0
LTYPE
  5
75
330
5
100
AcDbSymbolTableRecord
100
AcDbLinetypeTableRecord
  2
ECW-2
 70
     0
  3

 72
    65
 73
     2
 40
6.349999904633
 49
3.174999952316
 74
     0
 49
-3.174999952316
 74
     0
  0
LTYPE
  5
76
330
5
100
AcDbSymbolTableRecord
100
AcDbLinetypeTableRecord
  2
ECW-3
 70
     0
  3

 72
    65
 73
     2
 40
3.174999952316
 49
1.587499976158
 74
     0
 49
-1.587499976158
 74
     0
  0
LTYPE
  5
77
330
5
100
AcDbSymbolTableRecord
100
AcDbLinetypeTableRecord
  2
ECW-4
 70
     0
  3

 72
    65
 73
     4
 40
12.699999809265
 49
7.257142748152
 74
     0
 49
-1.814285687038
 74
     0
 49
1.814285687038
 74
     0
 49
-1.814285687038
 74
     0
  0
LTYPE
  5
78
330
5
100
AcDbSymbolTableRecord
100
AcDbLinetypeTableRecord
  2
ECW-5
 70
     0
  3

 72
    65
 73
     5
 40
25.39999961853
 49
8.46666653951
 74
     0
 49
-3.386666615804
 74
     0
 49
1.693333307902
 74
     0
 49
-3.386666615804
 74
     0
 49
8.46666653951
 74
     0
  0
LTYPE
  5
79
330
5
100
AcDbSymbolTableRecord
100
AcDbLinetypeTableRecord
  2
ECW-6
 70
     0
  3

 72
    65
 73
     2
 40
12.699999809265
 49
9.524999856949
 74
     0
 49
-3.174999952316
 74
     0
  0
LTYPE
  5
7A
330
5
100
AcDbSymbolTableRecord
100
AcDbLinetypeTableRecord
  2
ECW-7
 70
     0
  3

 72
    65
 73
     2
 40
12.699999809265
 49
6.349999904633
 74
     0
 49
-6.349999904633
 74
     0
  0
LTYPE
  5
7B
330
5
100
AcDbSymbolTableRecord
100
AcDbLinetypeTableRecord
  2
ECW-8
 70
     0
  3

 72
    65
 73
     2
 40
12.699999809265
 49
3.174999952316
 74
     0
 49
-9.524999856949
 74
     0
  0
LTYPE
  5
7C
330
5
100
AcDbSymbolTableRecord
100
AcDbLinetypeTableRecord
  2
ECW-9
 70
     0
  3

 72
    65
 73
     3
 40
25.39999961853
 49
9.524999856949
 74
     0
 49
-6.349999904633
 74
     0
 49
9.524999856949
 74
     0
  0
LTYPE
  5
7D
330
5
100
AcDbSymbolTableRecord
100
AcDbLinetypeTableRecord
  2
ECW-10
 70
     0
  3

 72
    65
 73
     4
 40
12.699999809265
 49
6.349999904633
 74
     0
 49
-1.587499976158
 74
     0
 49
3.174999952316
 74
     0
 49
-1.587499976158
 74
     0
  0
LTYPE
  5
7E
330
5
100
AcDbSymbolTableRecord
100
AcDbLinetypeTableRecord
  2
ECW-11
 70
     0
  3

 72
    65
 73
     6
 40
25.39999961853
 49
7.470588123097
 74
     0
 49
-2.988235249239
 74
     0
 49
7.470588123097
 74
     0
 49
-2.988235249239
 74
     0
 49
1.494117624619
 74
     0
 49
-2.988235249239
 74
     0
  0
LTYPE
  5
7F
330
5
100
AcDbSymbolTableRecord
100
AcDbLinetypeTableRecord
  2
ECW-12
 70
     0
  3

 72
    65
 73
     2
 40
12.699999809265
 49
9.524999856949
 74
     0
 49
-3.174999952316
 74
     0
  0
LTYPE
  5
80
330
5
100
AcDbSymbolTableRecord
100
AcDbLinetypeTableRecord
  2
ECW-13
 70
     0
  3

 72
    65
 73
     4
 40
25.39999961853
 49
13.546666463216
 74
     0
 49
-5.079999923706
 74
     0
 49
1.693333307902
 74
     0
 49
-5.079999923706
 74
     0
  0
LTYPE
  5
81
330
5
100
AcDbSymbolTableRecord
100
AcDbLinetypeTableRecord
  2
ECW-14
 70
     0
  3

 72
    65
 73
     2
 40
25.39999961853
 49
19.049999713898
 74
     0
 49
-6.349999904633
 74
     0
  0
LTYPE
  5
82
330
5
100
AcDbSymbolTableRecord
100
AcDbLinetypeTableRecord
  2
ECW-15
 70
     0
  3

 72
    65
 73
     7
 40
25.39999961853
 49
9.524999856949
 74
     0
 49
-3.174999952316
 74
     0
 49
1.587499976158
 74
     0
 49
-3.174999952316
 74
     0
 49
1.587499976158
 74
     0
 49
-3.174999952316
 74
     0
 49
3.174999952316
 74
     0
  0
LTYPE
  5
83
330
5
100
AcDbSymbolTableRecord
100
AcDbLinetypeTableRecord
  2
ECW-16
 70
     0
  3

 72
    65
 73
     2
 40
6.349999904633
 49
1.587499976158
 74
     0
 49
-4.762499928474
 74
     0
  0
LTYPE
  5
84
330
5
100
AcDbSymbolTableRecord
100
AcDbLinetypeTableRecord
  2
ECW-17
 70
     0
  3

 72
    65
 73
     2
 40
12.699999809265
 49
3.174999952316
 74
     0
 49
-9.524999856949
 74
     0
  0
LTYPE
  5
85
330
5
100
AcDbSymbolTableRecord
100
AcDbLinetypeTableRecord
  2
ECW-18
 70
     0
  3

 72
    65
 73
     3
 40
25.39999961853
 49
15.874999761581
 74
     0
 49
-7.937499880791
 74
     0
 49
1.587499976158
 74
     0
  0
ENDTAB
  0
TABLE
  2
LAYER
  5
2
330
0
100
AcDbSymbolTable
 70
     5
  0
LAYER
  5
10
330
2
100
AcDbSymbolTableRecord
100
AcDbLayerTableRecord
  2
0
 70
     0
 62
     7
  6
CONTINUOUS
  0
LAYER
  5
6E
330
2
100
AcDbSymbolTableRecord
100
AcDbLayerTableRecord
  2
MERGE
 70
     0
 62
     7
  6
CONTINUOUS
  0
LAYER
  5
6F
330
2
100
AcDbSymbolTableRecord
100
AcDbLayerTableRecord
  2
STANDARD
 70
     0
 62
     7
  6
CONTINUOUS
  0
LAYER
  5
70
330
2
100
AcDbSymbolTableRecord
100
AcDbLayerTableRecord
  2
BEMASSUNG
 70
     0
 62
     7
  6
CONTINUOUS
  0
LAYER
  5
452
330
2
100
AcDbSymbolTableRecord
100
AcDbLayerTableRecord
  2
DEFPOINTS
 70
     0
 62
     7
  6
CONTINUOUS
  0
ENDTAB
  0
TABLE
  2
STYLE
  5
3
330
0
100
AcDbSymbolTable
 70
     5
  0
STYLE
  5
11
330
3
100
AcDbSymbolTableRecord
100
AcDbTextStyleTableRecord
  2
STANDARD
 70
     0
 40
0.0
 41
1.0
 50
0.0
 71
     0
 42
0.2
  3
txt
  4

  0
STYLE
  5
86
330
3
100
AcDbSymbolTableRecord
100
AcDbTextStyleTableRecord
  2
ARIAL
 70
     0
 40
0.0
 41
1.0
 50
0.0
 71
     0
 42
0.2
  3

  4

1001
ACAD
1000
Arial
1071
       34
  0
STYLE
  5
87
330
3
100
AcDbSymbolTableRecord
100
AcDbTextStyleTableRecord
  2
SIMPLEX_DUP__1
 70
     0
 40
0.0
 41
1.0
 50
0.0
 71
     0
 42
0.2
  3
simplex.shx
  4

  0
STYLE
  5
88
330
3
100
AcDbSymbolTableRecord
100
AcDbTextStyleTableRecord
  2
SIMPLEX_DUP__2
 70
     0
 40
0.0
 41
1.0
 50
0.0
 71
     0
 42
0.2
  3
simplex.shx
  4

  0
STYLE
  5
89
330
3
100
AcDbSymbolTableRecord
100
AcDbTextStyleTableRecord
  2
TXT
 70
     0
 40
0.0
 41
1.0
 50
0.0
 71
     0
 42
0.2
  3
txt.shx
  4

  0
ENDTAB
  0
TABLE
  2
VIEW
  5
6
330
0
100
AcDbSymbolTable
 70
     0
  0
ENDTAB
  0
TABLE
  2
UCS
  5
7
330
0
100
AcDbSymbolTable
 70
     0
  0
ENDTAB
  0
TABLE
  2
APPID
  5
9
330
0
100
AcDbSymbolTable
 70
     2
  0
APPID
  5
12
330
9
100
AcDbSymbolTableRecord
100
AcDbRegAppTableRecord
  2
ACAD
 70
     0
  0
APPID
  5
4AA
330
9
100
AcDbSymbolTableRecord
100
AcDbRegAppTableRecord
  2
ACAD_MLEADERVER
 70
     0
  0
ENDTAB
  0
TABLE
  2
DIMSTYLE
  5
A
330
0
100
AcDbSymbolTable
 70
     1
  0
DIMSTYLE
105
27
102
{ACAD_REACTORS
330
451
330
45C
102
}
330
A
100
AcDbSymbolTableRecord
100
AcDbDimStyleTableRecord
  2
STANDARD
 70
     0
  3

  4

  5

  6

  7

 40
1.0
 41
0.18
 42
0.0625
 43
0.38
 44
0.18
 45
0.0
 46
0.0
 47
0.0
 48
0.0
140
0.18
141
0.09
142
0.0
143
25.4
144
1.0
145
0.0
146
1.0
147
0.09
 71
     0
 72
     0
 73
     1
 74
     1
 75
     0
 76
     0
 77
     0
 78
     0
170
     0
171
     2
172
     0
173
     0
174
     0
175
     0
176
     0
177
     0
178
     0
270
     2
271
     4
272
     4
273
     2
274
     2
340
11
275
     0
280
     0
281
     0
282
     0
283
     1
284
     0
285
     0
286
     0
287
     3
288
     0
  0
ENDTAB
  0
TABLE
  2
BLOCK_RECORD
  5
1
330
0
100
AcDbSymbolTable
 70
   229
  0
BLOCK_RECORD
  5
1F
330
1
100
AcDbSymbolTableRecord
100
AcDbBlockTableRecord
  2
*MODEL_SPACE
  0
BLOCK_RECORD
  5
1B
330
1
100
AcDbSymbolTableRecord
100
AcDbBlockTableRecord
  2
*PAPER_SPACE
  0
BLOCK_RECORD
  5
8A
330
1
100
AcDbSymbolTableRecord
100
AcDbBlockTableRecord
  2
DBLAYERS
  0
BLOCK_RECORD
  5
8D
330
1
100
AcDbSymbolTableRecord
100
AcDbBlockTableRecord
  2
BOARD_10
  0
BLOCK_RECORD
  5
90
330
1
100
AcDbSymbolTableRecord
100
AcDbBlockTableRecord
  2
DRAWING_1
  0
BLOCK_RECORD
  5
93
330
1
100
AcDbSymbolTableRecord
100
AcDbBlockTableRecord
  2
DRAWING_2
  0
BLOCK_RECORD
  5
96
330
1
100
AcDbSymbolTableRecord
100
AcDbBlockTableRecord
  2
DRAWING_3
  0
BLOCK_RECORD
  5
99
330
1
100
AcDbSymbolTableRecord
100
AcDbBlockTableRecord
  2
DRAWING_4
  0
BLOCK_RECORD
  5
9C
330
1
100
AcDbSymbolTableRecord
100
AcDbBlockTableRecord
  2
DRAWING_5
  0
BLOCK_RECORD
  5
9F
330
1
100
AcDbSymbolTableRecord
100
AcDbBlockTableRecord
  2
DRAWING_6
  0
BLOCK_RECORD
  5
A2
330
1
100
AcDbSymbolTableRecord
100
AcDbBlockTableRecord
  2
DRAWING_7
  0
BLOCK_RECORD
  5
A5
330
1
100
AcDbSymbolTableRecord
100
AcDbBlockTableRecord
  2
DRAWING_8
  0
BLOCK_RECORD
  5
A8
330
1
100
AcDbSymbolTableRecord
100
AcDbBlockTableRecord
  2
DRAWING_9
  0
BLOCK_RECORD
  5
AB
330
1
100
AcDbSymbolTableRecord
100
AcDbBlockTableRecord
  2
DRAWING_11
  0
BLOCK_RECORD
  5
AE
330
1
100
AcDbSymbolTableRecord
100
AcDbBlockTableRecord
  2
DRAWING_12
  0
BLOCK_RECORD
  5
B1
330
1
100
AcDbSymbolTableRecord
100
AcDbBlockTableRecord
  2
DRAWING_13
  0
BLOCK_RECORD
  5
B4
330
1
100
AcDbSymbolTableRecord
100
AcDbBlockTableRecord
  2
DRAWING_14
  0
BLOCK_RECORD
  5
B7
330
1
100
AcDbSymbolTableRecord
100
AcDbBlockTableRecord
  2
DRAWING_15
  0
BLOCK_RECORD
  5
BA
330
1
100
AcDbSymbolTableRecord
100
AcDbBlockTableRecord
  2
DRAWING_42
  0
BLOCK_RECORD
  5
BD
330
1
100
AcDbSymbolTableRecord
100
AcDbBlockTableRecord
  2
KEEPOUT_16
  0
BLOCK_RECORD
  5
C0
330
1
100
AcDbSymbolTableRecord
100
AcDbBlockTableRecord
  2
KEEPOUT_17
  0
BLOCK_RECORD
  5
C3
330
1
100
AcDbSymbolTableRecord
100
AcDbBlockTableRecord
  2
KEEPOUT_18
  0
BLOCK_RECORD
  5
C6
330
1
100
AcDbSymbolTableRecord
100
AcDbBlockTableRecord
  2
KEEPOUT_19
  0
BLOCK_RECORD
  5
C9
330
1
100
AcDbSymbolTableRecord
100
AcDbBlockTableRecord
  2
PART_TOP_0
  0
BLOCK_RECORD
  5
CE
330
1
100
AcDbSymbolTableRecord
100
AcDbBlockTableRecord
  2
PART_TOP_1
  0
BLOCK_RECORD
  5
D3
330
1
100
AcDbSymbolTableRecord
100
AcDbBlockTableRecord
  2
PART_TOP_2
  0
BLOCK_RECORD
  5
D8
330
1
100
AcDbSymbolTableRecord
100
AcDbBlockTableRecord
  2
PART_TOP_3
  0
BLOCK_RECORD
  5
DD
330
1
100
AcDbSymbolTableRecord
100
AcDbBlockTableRecord
  2
PART_TOP_4
  0
BLOCK_RECORD
  5
E2
330
1
100
AcDbSymbolTableRecord
100
AcDbBlockTableRecord
  2
PART_TOP_5
  0
BLOCK_RECORD
  5
E7
330
1
100
AcDbSymbolTableRecord
100
AcDbBlockTableRecord
  2
PART_TOP_6
  0
BLOCK_RECORD
  5
EC
330
1
100
AcDbSymbolTableRecord
100
AcDbBlockTableRecord
  2
PART_TOP_7
  0
BLOCK_RECORD
  5
F1
330
1
100
AcDbSymbolTableRecord
100
AcDbBlockTableRecord
  2
PART_TOP_8
  0
BLOCK_RECORD
  5
F6
330
1
100
AcDbSymbolTableRecord
100
AcDbBlockTableRecord
  2
PART_TOP_9
  0
BLOCK_RECORD
  5
FB
330
1
100
AcDbSymbolTableRecord
100
AcDbBlockTableRecord
  2
PART_TOP_10
  0
BLOCK_RECORD
  5
100
330
1
100
AcDbSymbolTableRecord
100
AcDbBlockTableRecord
  2
PART_TOP_11
  0
BLOCK_RECORD
  5
105
330
1
100
AcDbSymbolTableRecord
100
AcDbBlockTableRecord
  2
PART_TOP_12
  0
BLOCK_RECORD
  5
10A
330
1
100
AcDbSymbolTableRecord
100
AcDbBlockTableRecord
  2
PART_TOP_13
  0
BLOCK_RECORD
  5
10F
330
1
100
AcDbSymbolTableRecord
100
AcDbBlockTableRecord
  2
PART_TOP_14
  0
BLOCK_RECORD
  5
114
330
1
100
AcDbSymbolTableRecord
100
AcDbBlockTableRecord
  2
PART_TOP_15
  0
BLOCK_RECORD
  5
119
330
1
100
AcDbSymbolTableRecord
100
AcDbBlockTableRecord
  2
PART_TOP_16
  0
BLOCK_RECORD
  5
11E
330
1
100
AcDbSymbolTableRecord
100
AcDbBlockTableRecord
  2
PART_TOP_17
  0
BLOCK_RECORD
  5
123
330
1
100
AcDbSymbolTableRecord
100
AcDbBlockTableRecord
  2
PART_TOP_18
  0
BLOCK_RECORD
  5
128
330
1
100
AcDbSymbolTableRecord
100
AcDbBlockTableRecord
  2
PART_TOP_19
  0
BLOCK_RECORD
  5
12D
330
1
100
AcDbSymbolTableRecord
100
AcDbBlockTableRecord
  2
PART_TOP_20
  0
BLOCK_RECORD
  5
132
330
1
100
AcDbSymbolTableRecord
100
AcDbBlockTableRecord
  2
PART_TOP_21
  0
BLOCK_RECORD
  5
137
330
1
100
AcDbSymbolTableRecord
100
AcDbBlockTableRecord
  2
PART_TOP_22
  0
BLOCK_RECORD
  5
13C
330
1
100
AcDbSymbolTableRecord
100
AcDbBlockTableRecord
  2
PART_TOP_23
  0
BLOCK_RECORD
  5
141
330
1
100
AcDbSymbolTableRecord
100
AcDbBlockTableRecord
  2
PART_TOP_24
  0
BLOCK_RECORD
  5
146
330
1
100
AcDbSymbolTableRecord
100
AcDbBlockTableRecord
  2
PART_TOP_25
  0
BLOCK_RECORD
  5
14B
330
1
100
AcDbSymbolTableRecord
100
AcDbBlockTableRecord
  2
PART_TOP_26
  0
BLOCK_RECORD
  5
150
330
1
100
AcDbSymbolTableRecord
100
AcDbBlockTableRecord
  2
PART_TOP_27
  0
BLOCK_RECORD
  5
155
330
1
100
AcDbSymbolTableRecord
100
AcDbBlockTableRecord
  2
PART_TOP_28
  0
BLOCK_RECORD
  5
15A
330
1
100
AcDbSymbolTableRecord
100
AcDbBlockTableRecord
  2
PART_TOP_29
  0
BLOCK_RECORD
  5
15F
330
1
100
AcDbSymbolTableRecord
100
AcDbBlockTableRecord
  2
PART_TOP_30
  0
BLOCK_RECORD
  5
164
330
1
100
AcDbSymbolTableRecord
100
AcDbBlockTableRecord
  2
PART_TOP_31
  0
BLOCK_RECORD
  5
169
330
1
100
AcDbSymbolTableRecord
100
AcDbBlockTableRecord
  2
PART_TOP_32
  0
BLOCK_RECORD
  5
16E
330
1
100
AcDbSymbolTableRecord
100
AcDbBlockTableRecord
  2
PART_TOP_33
  0
BLOCK_RECORD
  5
173
330
1
100
AcDbSymbolTableRecord
100
AcDbBlockTableRecord
  2
PART_TOP_34
  0
BLOCK_RECORD
  5
178
330
1
100
AcDbSymbolTableRecord
100
AcDbBlockTableRecord
  2
PART_TOP_35
  0
BLOCK_RECORD
  5
17D
330
1
100
AcDbSymbolTableRecord
100
AcDbBlockTableRecord
  2
PART_TOP_36
  0
BLOCK_RECORD
  5
182
330
1
100
AcDbSymbolTableRecord
100
AcDbBlockTableRecord
  2
PART_TOP_37
  0
BLOCK_RECORD
  5
187
330
1
100
AcDbSymbolTableRecord
100
AcDbBlockTableRecord
  2
PART_TOP_38
  0
BLOCK_RECORD
  5
18C
330
1
100
AcDbSymbolTableRecord
100
AcDbBlockTableRecord
  2
PART_TOP_39
  0
BLOCK_RECORD
  5
191
330
1
100
AcDbSymbolTableRecord
100
AcDbBlockTableRecord
  2
PART_TOP_40
  0
BLOCK_RECORD
  5
196
330
1
100
AcDbSymbolTableRecord
100
AcDbBlockTableRecord
  2
PART_TOP_41
  0
BLOCK_RECORD
  5
19B
330
1
100
AcDbSymbolTableRecord
100
AcDbBlockTableRecord
  2
PART_TOP_42
  0
BLOCK_RECORD
  5
1A0
330
1
100
AcDbSymbolTableRecord
100
AcDbBlockTableRecord
  2
PART_TOP_43
  0
BLOCK_RECORD
  5
1A5
330
1
100
AcDbSymbolTableRecord
100
AcDbBlockTableRecord
  2
PART_TOP_44
  0
BLOCK_RECORD
  5
1AA
330
1
100
AcDbSymbolTableRecord
100
AcDbBlockTableRecord
  2
PART_TOP_45
  0
BLOCK_RECORD
  5
1AF
330
1
100
AcDbSymbolTableRecord
100
AcDbBlockTableRecord
  2
PART_TOP_46
  0
BLOCK_RECORD
  5
1B4
330
1
100
AcDbSymbolTableRecord
100
AcDbBlockTableRecord
  2
PART_TOP_47
  0
BLOCK_RECORD
  5
1B9
330
1
100
AcDbSymbolTableRecord
100
AcDbBlockTableRecord
  2
PART_TOP_48
  0
BLOCK_RECORD
  5
1BE
330
1
100
AcDbSymbolTableRecord
100
AcDbBlockTableRecord
  2
PART_TOP_49
  0
BLOCK_RECORD
  5
1C3
330
1
100
AcDbSymbolTableRecord
100
AcDbBlockTableRecord
  2
PART_TOP_50
  0
BLOCK_RECORD
  5
1C8
330
1
100
AcDbSymbolTableRecord
100
AcDbBlockTableRecord
  2
PART_TOP_51
  0
BLOCK_RECORD
  5
1CD
330
1
100
AcDbSymbolTableRecord
100
AcDbBlockTableRecord
  2
PART_TOP_52
  0
BLOCK_RECORD
  5
1D2
330
1
100
AcDbSymbolTableRecord
100
AcDbBlockTableRecord
  2
PART_TOP_53
  0
BLOCK_RECORD
  5
1D7
330
1
100
AcDbSymbolTableRecord
100
AcDbBlockTableRecord
  2
PART_TOP_54
  0
BLOCK_RECORD
  5
1DC
330
1
100
AcDbSymbolTableRecord
100
AcDbBlockTableRecord
  2
PART_TOP_55
  0
BLOCK_RECORD
  5
1E1
330
1
100
AcDbSymbolTableRecord
100
AcDbBlockTableRecord
  2
PART_TOP_56
  0
BLOCK_RECORD
  5
1E6
330
1
100
AcDbSymbolTableRecord
100
AcDbBlockTableRecord
  2
SYM_TOP_13
  0
BLOCK_RECORD
  5
1EC
330
1
100
AcDbSymbolTableRecord
100
AcDbBlockTableRecord
  2
PKG_0
  0
BLOCK_RECORD
  5
1EF
330
1
100
AcDbSymbolTableRecord
100
AcDbBlockTableRecord
  2
SYM_TOP_14
  0
BLOCK_RECORD
  5
1F4
330
1
100
AcDbSymbolTableRecord
100
AcDbBlockTableRecord
  2
PKG_1
  0
BLOCK_RECORD
  5
1F7
330
1
100
AcDbSymbolTableRecord
100
AcDbBlockTableRecord
  2
SYM_TOP_15
  0
BLOCK_RECORD
  5
1FD
330
1
100
AcDbSymbolTableRecord
100
AcDbBlockTableRecord
  2
PKG_2
  0
BLOCK_RECORD
  5
200
330
1
100
AcDbSymbolTableRecord
100
AcDbBlockTableRecord
  2
SYM_TOP_16
  0
BLOCK_RECORD
  5
206
330
1
100
AcDbSymbolTableRecord
100
AcDbBlockTableRecord
  2
PKG_3
  0
BLOCK_RECORD
  5
209
330
1
100
AcDbSymbolTableRecord
100
AcDbBlockTableRecord
  2
SYM_TOP_18
  0
BLOCK_RECORD
  5
20F
330
1
100
AcDbSymbolTableRecord
100
AcDbBlockTableRecord
  2
PKG_4
  0
BLOCK_RECORD
  5
212
330
1
100
AcDbSymbolTableRecord
100
AcDbBlockTableRecord
  2
SYM_TOP_19
  0
BLOCK_RECORD
  5
218
330
1
100
AcDbSymbolTableRecord
100
AcDbBlockTableRecord
  2
PKG_5
  0
BLOCK_RECORD
  5
21B
330
1
100
AcDbSymbolTableRecord
100
AcDbBlockTableRecord
  2
PKG_6
  0
BLOCK_RECORD
  5
21E
330
1
100
AcDbSymbolTableRecord
100
AcDbBlockTableRecord
  2
SYM_TOP_20
  0
BLOCK_RECORD
  5
226
330
1
100
AcDbSymbolTableRecord
100
AcDbBlockTableRecord
  2
PKG_8
  0
BLOCK_RECORD
  5
229
330
1
100
AcDbSymbolTableRecord
100
AcDbBlockTableRecord
  2
SYM_TOP_21
  0
BLOCK_RECORD
  5
235
330
1
100
AcDbSymbolTableRecord
100
AcDbBlockTableRecord
  2
PKG_9
  0
BLOCK_RECORD
  5
238
330
1
100
AcDbSymbolTableRecord
100
AcDbBlockTableRecord
  2
SYM_TOP_22
  0
BLOCK_RECORD
  5
244
330
1
100
AcDbSymbolTableRecord
100
AcDbBlockTableRecord
  2
PKG_10
  0
BLOCK_RECORD
  5
247
330
1
100
AcDbSymbolTableRecord
100
AcDbBlockTableRecord
  2
SYM_TOP_23
  0
BLOCK_RECORD
  5
24D
330
1
100
AcDbSymbolTableRecord
100
AcDbBlockTableRecord
  2
PKG_11
  0
BLOCK_RECORD
  5
250
330
1
100
AcDbSymbolTableRecord
100
AcDbBlockTableRecord
  2
SYM_TOP_24
  0
BLOCK_RECORD
  5
256
330
1
100
AcDbSymbolTableRecord
100
AcDbBlockTableRecord
  2
PKG_12
  0
BLOCK_RECORD
  5
259
330
1
100
AcDbSymbolTableRecord
100
AcDbBlockTableRecord
  2
SYM_TOP_26
  0
BLOCK_RECORD
  5
25E
330
1
100
AcDbSymbolTableRecord
100
AcDbBlockTableRecord
  2
PKG_13
  0
BLOCK_RECORD
  5
261
330
1
100
AcDbSymbolTableRecord
100
AcDbBlockTableRecord
  2
SYM_TOP_27
  0
BLOCK_RECORD
  5
268
330
1
100
AcDbSymbolTableRecord
100
AcDbBlockTableRecord
  2
PKG_14
  0
BLOCK_RECORD
  5
26B
330
1
100
AcDbSymbolTableRecord
100
AcDbBlockTableRecord
  2
SYM_TOP_28
  0
BLOCK_RECORD
  5
271
330
1
100
AcDbSymbolTableRecord
100
AcDbBlockTableRecord
  2
PKG_15
  0
BLOCK_RECORD
  5
274
330
1
100
AcDbSymbolTableRecord
100
AcDbBlockTableRecord
  2
SYM_TOP_29
  0
BLOCK_RECORD
  5
27D
330
1
100
AcDbSymbolTableRecord
100
AcDbBlockTableRecord
  2
PKG_16
  0
BLOCK_RECORD
  5
280
330
1
100
AcDbSymbolTableRecord
100
AcDbBlockTableRecord
  2
PKG_17
  0
BLOCK_RECORD
  5
283
330
1
100
AcDbSymbolTableRecord
100
AcDbBlockTableRecord
  2
PKG_7
  0
BLOCK_RECORD
  5
286
330
1
100
AcDbSymbolTableRecord
100
AcDbBlockTableRecord
  2
PKG_18
  0
BLOCK_RECORD
  5
289
330
1
100
AcDbSymbolTableRecord
100
AcDbBlockTableRecord
  2
SYM_TOP_30
  0
BLOCK_RECORD
  5
28F
330
1
100
AcDbSymbolTableRecord
100
AcDbBlockTableRecord
  2
PKG_19
  0
BLOCK_RECORD
  5
292
330
1
100
AcDbSymbolTableRecord
100
AcDbBlockTableRecord
  2
SYM_TOP_31
  0
BLOCK_RECORD
  5
299
330
1
100
AcDbSymbolTableRecord
100
AcDbBlockTableRecord
  2
PKG_20
  0
BLOCK_RECORD
  5
29C
330
1
100
AcDbSymbolTableRecord
100
AcDbBlockTableRecord
  2
SYM_TOP_32
  0
BLOCK_RECORD
  5
2A3
330
1
100
AcDbSymbolTableRecord
100
AcDbBlockTableRecord
  2
PKG_21
  0
BLOCK_RECORD
  5
2A6
330
1
100
AcDbSymbolTableRecord
100
AcDbBlockTableRecord
  2
PKG_22
  0
BLOCK_RECORD
  5
2A9
330
1
100
AcDbSymbolTableRecord
100
AcDbBlockTableRecord
  2
SYM_TOP_33
  0
BLOCK_RECORD
  5
2AF
330
1
100
AcDbSymbolTableRecord
100
AcDbBlockTableRecord
  2
PKG_23
  0
BLOCK_RECORD
  5
2B2
330
1
100
AcDbSymbolTableRecord
100
AcDbBlockTableRecord
  2
PKG_24
  0
BLOCK_RECORD
  5
2B5
330
1
100
AcDbSymbolTableRecord
100
AcDbBlockTableRecord
  2
PART_BODY_TOP_20
  0
BLOCK_RECORD
  5
2B8
330
1
100
AcDbSymbolTableRecord
100
AcDbBlockTableRecord
  2
STK_TOP_28
  0
BLOCK_RECORD
  5
2BB
330
1
100
AcDbSymbolTableRecord
100
AcDbBlockTableRecord
  2
STK_TOP_29
  0
BLOCK_RECORD
  5
2BE
330
1
100
AcDbSymbolTableRecord
100
AcDbBlockTableRecord
  2
PART_BODY_TOP_21
  0
BLOCK_RECORD
  5
2C1
330
1
100
AcDbSymbolTableRecord
100
AcDbBlockTableRecord
  2
STK_TOP_32
  0
BLOCK_RECORD
  5
2C4
330
1
100
AcDbSymbolTableRecord
100
AcDbBlockTableRecord
  2
PART_BODY_TOP_22
  0
BLOCK_RECORD
  5
2C7
330
1
100
AcDbSymbolTableRecord
100
AcDbBlockTableRecord
  2
STK_TOP_37
  0
BLOCK_RECORD
  5
2CA
330
1
100
AcDbSymbolTableRecord
100
AcDbBlockTableRecord
  2
PART_BODY_TOP_23
  0
BLOCK_RECORD
  5
2CD
330
1
100
AcDbSymbolTableRecord
100
AcDbBlockTableRecord
  2
STK_TOP_38
  0
BLOCK_RECORD
  5
2D0
330
1
100
AcDbSymbolTableRecord
100
AcDbBlockTableRecord
  2
SYM_TOP_17
  0
BLOCK_RECORD
  5
2D6
330
1
100
AcDbSymbolTableRecord
100
AcDbBlockTableRecord
  2
PART_BODY_TOP_25
  0
BLOCK_RECORD
  5
2D9
330
1
100
AcDbSymbolTableRecord
100
AcDbBlockTableRecord
  2
STK_TOP_40
  0
BLOCK_RECORD
  5
2DC
330
1
100
AcDbSymbolTableRecord
100
AcDbBlockTableRecord
  2
PART_BODY_TOP_26
  0
BLOCK_RECORD
  5
2DF
330
1
100
AcDbSymbolTableRecord
100
AcDbBlockTableRecord
  2
PART_BODY_TOP_27
  0
BLOCK_RECORD
  5
2E2
330
1
100
AcDbSymbolTableRecord
100
AcDbBlockTableRecord
  2
STK_TOP_41
  0
BLOCK_RECORD
  5
2E5
330
1
100
AcDbSymbolTableRecord
100
AcDbBlockTableRecord
  2
STK_TOP_42
  0
BLOCK_RECORD
  5
2E8
330
1
100
AcDbSymbolTableRecord
100
AcDbBlockTableRecord
  2
PART_BODY_TOP_28
  0
BLOCK_RECORD
  5
2EB
330
1
100
AcDbSymbolTableRecord
100
AcDbBlockTableRecord
  2
STK_TOP_43
  0
BLOCK_RECORD
  5
2EE
330
1
100
AcDbSymbolTableRecord
100
AcDbBlockTableRecord
  2
PART_BODY_TOP_29
  0
BLOCK_RECORD
  5
2F1
330
1
100
AcDbSymbolTableRecord
100
AcDbBlockTableRecord
  2
STK_TOP_44
  0
BLOCK_RECORD
  5
2F4
330
1
100
AcDbSymbolTableRecord
100
AcDbBlockTableRecord
  2
STK_TOP_45
  0
BLOCK_RECORD
  5
2F7
330
1
100
AcDbSymbolTableRecord
100
AcDbBlockTableRecord
  2
PART_BODY_TOP_30
  0
BLOCK_RECORD
  5
2FA
330
1
100
AcDbSymbolTableRecord
100
AcDbBlockTableRecord
  2
STK_TOP_47
  0
BLOCK_RECORD
  5
2FD
330
1
100
AcDbSymbolTableRecord
100
AcDbBlockTableRecord
  2
STK_TOP_46
  0
BLOCK_RECORD
  5
300
330
1
100
AcDbSymbolTableRecord
100
AcDbBlockTableRecord
  2
PART_BODY_TOP_31
  0
BLOCK_RECORD
  5
303
330
1
100
AcDbSymbolTableRecord
100
AcDbBlockTableRecord
  2
STK_TOP_48
  0
BLOCK_RECORD
  5
306
330
1
100
AcDbSymbolTableRecord
100
AcDbBlockTableRecord
  2
SYM_TOP_25
  0
BLOCK_RECORD
  5
30C
330
1
100
AcDbSymbolTableRecord
100
AcDbBlockTableRecord
  2
PART_BODY_TOP_33
  0
BLOCK_RECORD
  5
30F
330
1
100
AcDbSymbolTableRecord
100
AcDbBlockTableRecord
  2
STK_TOP_50
  0
BLOCK_RECORD
  5
312
330
1
100
AcDbSymbolTableRecord
100
AcDbBlockTableRecord
  2
PART_BODY_TOP_34
  0
BLOCK_RECORD
  5
315
330
1
100
AcDbSymbolTableRecord
100
AcDbBlockTableRecord
  2
STK_TOP_51
  0
BLOCK_RECORD
  5
318
330
1
100
AcDbSymbolTableRecord
100
AcDbBlockTableRecord
  2
PART_BODY_TOP_35
  0
BLOCK_RECORD
  5
31B
330
1
100
AcDbSymbolTableRecord
100
AcDbBlockTableRecord
  2
STK_TOP_25
  0
BLOCK_RECORD
  5
31E
330
1
100
AcDbSymbolTableRecord
100
AcDbBlockTableRecord
  2
STK_TOP_24
  0
BLOCK_RECORD
  5
321
330
1
100
AcDbSymbolTableRecord
100
AcDbBlockTableRecord
  2
PART_BODY_TOP_36
  0
BLOCK_RECORD
  5
324
330
1
100
AcDbSymbolTableRecord
100
AcDbBlockTableRecord
  2
STK_TOP_52
  0
BLOCK_RECORD
  5
327
330
1
100
AcDbSymbolTableRecord
100
AcDbBlockTableRecord
  2
PART_BODY_TOP_37
  0
BLOCK_RECORD
  5
32A
330
1
100
AcDbSymbolTableRecord
100
AcDbBlockTableRecord
  2
STK_TOP_53
  0
BLOCK_RECORD
  5
32D
330
1
100
AcDbSymbolTableRecord
100
AcDbBlockTableRecord
  2
PART_BODY_TOP_38
  0
BLOCK_RECORD
  5
330
330
1
100
AcDbSymbolTableRecord
100
AcDbBlockTableRecord
  2
STK_TOP_54
  0
BLOCK_RECORD
  5
333
330
1
100
AcDbSymbolTableRecord
100
AcDbBlockTableRecord
  2
PART_BODY_TOP_39
  0
BLOCK_RECORD
  5
336
330
1
100
AcDbSymbolTableRecord
100
AcDbBlockTableRecord
  2
STK_TOP_55
  0
BLOCK_RECORD
  5
339
330
1
100
AcDbSymbolTableRecord
100
AcDbBlockTableRecord
  2
PART_BODY_TOP_40
  0
BLOCK_RECORD
  5
33C
330
1
100
AcDbSymbolTableRecord
100
AcDbBlockTableRecord
  2
STK_TOP_57
  0
BLOCK_RECORD
  5
33F
330
1
100
AcDbSymbolTableRecord
100
AcDbBlockTableRecord
  2
STK_TOP_58
  0
BLOCK_RECORD
  5
342
330
1
100
AcDbSymbolTableRecord
100
AcDbBlockTableRecord
  2
SYM_TOP_34
  0
BLOCK_RECORD
  5
348
330
1
100
AcDbSymbolTableRecord
100
AcDbBlockTableRecord
  2
PART_BODY_TOP_24
  0
BLOCK_RECORD
  5
34B
330
1
100
AcDbSymbolTableRecord
100
AcDbBlockTableRecord
  2
STK_TOP_39
  0
BLOCK_RECORD
  5
34E
330
1
100
AcDbSymbolTableRecord
100
AcDbBlockTableRecord
  2
PART_BODY_TOP_32
  0
BLOCK_RECORD
  5
351
330
1
100
AcDbSymbolTableRecord
100
AcDbBlockTableRecord
  2
STK_TOP_49
  0
BLOCK_RECORD
  5
354
330
1
100
AcDbSymbolTableRecord
100
AcDbBlockTableRecord
  2
PART_BODY_TOP_41
  0
BLOCK_RECORD
  5
357
330
1
100
AcDbSymbolTableRecord
100
AcDbBlockTableRecord
  2
STK_TOP_59
  0
BLOCK_RECORD
  5
35A
330
1
100
AcDbSymbolTableRecord
100
AcDbBlockTableRecord
  2
STK_TOP_60
  0
BLOCK_RECORD
  5
35D
330
1
100
AcDbSymbolTableRecord
100
AcDbBlockTableRecord
  2
PCB_PARAMS
  0
BLOCK_RECORD
  5
360
330
1
100
AcDbSymbolTableRecord
100
AcDbBlockTableRecord
  2
DRIL_SYMBOL_0$9
  0
BLOCK_RECORD
  5
363
330
1
100
AcDbSymbolTableRecord
100
AcDbBlockTableRecord
  2
DRIL_SYMBOL_1
  0
BLOCK_RECORD
  5
366
330
1
100
AcDbSymbolTableRecord
100
AcDbBlockTableRecord
  2
DRIL_SYMBOL_2$2
  0
BLOCK_RECORD
  5
369
330
1
100
AcDbSymbolTableRecord
100
AcDbBlockTableRecord
  2
DRIL_SYMBOL_0
  0
BLOCK_RECORD
  5
36C
330
1
100
AcDbSymbolTableRecord
100
AcDbBlockTableRecord
  2
DRIL_SYMBOL_0$6
  0
BLOCK_RECORD
  5
36F
330
1
100
AcDbSymbolTableRecord
100
AcDbBlockTableRecord
  2
DRIL_SYMBOL_1$3
  0
BLOCK_RECORD
  5
372
330
1
100
AcDbSymbolTableRecord
100
AcDbBlockTableRecord
  2
DRIL_SYMBOL_6$5
  0
BLOCK_RECORD
  5
375
330
1
100
AcDbSymbolTableRecord
100
AcDbBlockTableRecord
  2
DRIL_SYMBOL_0$7
  0
BLOCK_RECORD
  5
378
330
1
100
AcDbSymbolTableRecord
100
AcDbBlockTableRecord
  2
DRIL_SYMBOL_0$8
  0
BLOCK_RECORD
  5
37B
330
1
100
AcDbSymbolTableRecord
100
AcDbBlockTableRecord
  2
DRIL_SYMBOL_1$2
  0
BLOCK_RECORD
  5
37E
330
1
100
AcDbSymbolTableRecord
100
AcDbBlockTableRecord
  2
SMOOTH_0$0254
  0
BLOCK_RECORD
  5
383
330
1
100
AcDbSymbolTableRecord
100
AcDbBlockTableRecord
  2
SMOOTH_0$15
  0
BLOCK_RECORD
  5
388
330
1
100
AcDbSymbolTableRecord
100
AcDbBlockTableRecord
  2
SMOOTH_0$1
  0
BLOCK_RECORD
  5
38D
330
1
100
AcDbSymbolTableRecord
100
AcDbBlockTableRecord
  2
SMOOTH_0$254
  0
BLOCK_RECORD
  5
392
330
1
100
AcDbSymbolTableRecord
100
AcDbBlockTableRecord
  2
SMOOTH_0$2
  0
BLOCK_RECORD
  5
397
330
1
100
AcDbSymbolTableRecord
100
AcDbBlockTableRecord
  2
PAD_0
  0
BLOCK_RECORD
  5
39C
330
1
100
AcDbSymbolTableRecord
100
AcDbBlockTableRecord
  2
PAD_1
  0
BLOCK_RECORD
  5
3A0
330
1
100
AcDbSymbolTableRecord
100
AcDbBlockTableRecord
  2
PAD_2
  0
BLOCK_RECORD
  5
3A3
330
1
100
AcDbSymbolTableRecord
100
AcDbBlockTableRecord
  2
PAD_3
  0
BLOCK_RECORD
  5
3A7
330
1
100
AcDbSymbolTableRecord
100
AcDbBlockTableRecord
  2
PAD_4
  0
BLOCK_RECORD
  5
3AC
330
1
100
AcDbSymbolTableRecord
100
AcDbBlockTableRecord
  2
PAD_5
  0
BLOCK_RECORD
  5
3B0
330
1
100
AcDbSymbolTableRecord
100
AcDbBlockTableRecord
  2
PAD_6
  0
BLOCK_RECORD
  5
3B5
330
1
100
AcDbSymbolTableRecord
100
AcDbBlockTableRecord
  2
PAD_7
  0
BLOCK_RECORD
  5
3B9
330
1
100
AcDbSymbolTableRecord
100
AcDbBlockTableRecord
  2
PAD_8
  0
BLOCK_RECORD
  5
3BD
330
1
100
AcDbSymbolTableRecord
100
AcDbBlockTableRecord
  2
PAD_9
  0
BLOCK_RECORD
  5
3C1
330
1
100
AcDbSymbolTableRecord
100
AcDbBlockTableRecord
  2
PAD_10
  0
BLOCK_RECORD
  5
3C6
330
1
100
AcDbSymbolTableRecord
100
AcDbBlockTableRecord
  2
PAD_11
  0
BLOCK_RECORD
  5
3CA
330
1
100
AcDbSymbolTableRecord
100
AcDbBlockTableRecord
  2
PAD_12
  0
BLOCK_RECORD
  5
3CF
330
1
100
AcDbSymbolTableRecord
100
AcDbBlockTableRecord
  2
PAD_13
  0
BLOCK_RECORD
  5
3D3
330
1
100
AcDbSymbolTableRecord
100
AcDbBlockTableRecord
  2
PAD_14
  0
BLOCK_RECORD
  5
3D7
330
1
100
AcDbSymbolTableRecord
100
AcDbBlockTableRecord
  2
PAD_15
  0
BLOCK_RECORD
  5
3E2
330
1
100
AcDbSymbolTableRecord
100
AcDbBlockTableRecord
  2
PAD_16
  0
BLOCK_RECORD
  5
3E7
330
1
100
AcDbSymbolTableRecord
100
AcDbBlockTableRecord
  2
PAD_17
  0
BLOCK_RECORD
  5
3F2
330
1
100
AcDbSymbolTableRecord
100
AcDbBlockTableRecord
  2
PAD_18
  0
BLOCK_RECORD
  5
3F7
330
1
100
AcDbSymbolTableRecord
100
AcDbBlockTableRecord
  2
PAD_19
  0
BLOCK_RECORD
  5
3FB
330
1
100
AcDbSymbolTableRecord
100
AcDbBlockTableRecord
  2
PAD_20
  0
BLOCK_RECORD
  5
3FF
330
1
100
AcDbSymbolTableRecord
100
AcDbBlockTableRecord
  2
PAD_21
  0
BLOCK_RECORD
  5
403
330
1
100
AcDbSymbolTableRecord
100
AcDbBlockTableRecord
  2
PAD_22
  0
BLOCK_RECORD
  5
407
330
1
100
AcDbSymbolTableRecord
100
AcDbBlockTableRecord
  2
PAD_23
  0
BLOCK_RECORD
  5
40C
330
1
100
AcDbSymbolTableRecord
100
AcDbBlockTableRecord
  2
DRIL_HOLE_0$9
  0
BLOCK_RECORD
  5
412
330
1
100
AcDbSymbolTableRecord
100
AcDbBlockTableRecord
  2
DRIL_HOLE_1
  0
BLOCK_RECORD
  5
418
330
1
100
AcDbSymbolTableRecord
100
AcDbBlockTableRecord
  2
DRIL_HOLE_2$2
  0
BLOCK_RECORD
  5
41E
330
1
100
AcDbSymbolTableRecord
100
AcDbBlockTableRecord
  2
DRIL_HOLE_0
  0
BLOCK_RECORD
  5
422
330
1
100
AcDbSymbolTableRecord
100
AcDbBlockTableRecord
  2
DRIL_HOLE_0$6
  0
BLOCK_RECORD
  5
428
330
1
100
AcDbSymbolTableRecord
100
AcDbBlockTableRecord
  2
DRIL_HOLE_1$3
  0
BLOCK_RECORD
  5
42E
330
1
100
AcDbSymbolTableRecord
100
AcDbBlockTableRecord
  2
DRIL_HOLE_6$5
  0
BLOCK_RECORD
  5
434
330
1
100
AcDbSymbolTableRecord
100
AcDbBlockTableRecord
  2
DRIL_HOLE_0$7
  0
BLOCK_RECORD
  5
43A
330
1
100
AcDbSymbolTableRecord
100
AcDbBlockTableRecord
  2
DRIL_HOLE_0$8
  0
BLOCK_RECORD
  5
440
330
1
100
AcDbSymbolTableRecord
100
AcDbBlockTableRecord
  2
DRIL_HOLE_1$2
  0
BLOCK_RECORD
  5
453
330
1
100
AcDbSymbolTableRecord
100
AcDbBlockTableRecord
  2
*D226
  0
BLOCK_RECORD
  5
45D
330
1
100
AcDbSymbolTableRecord
100
AcDbBlockTableRecord
  2
*D227
  0
BLOCK_RECORD
  5
46A
330
1
100
AcDbSymbolTableRecord
100
AcDbBlockTableRecord
  2
$TD_AUDIT_GENERATED__0_
  0
ENDTAB
  0
ENDSEC
  0
SECTION
  2
BLOCKS
  0
BLOCK
  5
20
330
1F
100
AcDbEntity
  8
0
100
AcDbBlockBegin
  2
*MODEL_SPACE
 70
     0
 10
0.0
 20
0.0
 30
0.0
  3
*MODEL_SPACE
  1

  0
ENDBLK
  5
21
330
1F
100
AcDbEntity
  8
0
100
AcDbBlockEnd
  0
BLOCK
  5
1C
330
1B
100
AcDbEntity
 67
     1
  8
0
100
AcDbBlockBegin
  2
*PAPER_SPACE
 70
     0
 10
0.0
 20
0.0
 30
0.0
  3
*PAPER_SPACE
  1

  0
ENDBLK
  5
1D
330
1B
100
AcDbEntity
 67
     1
  8
0
100
AcDbBlockEnd
  0
BLOCK
  5
8B
330
8A
100
AcDbEntity
  8
0
100
AcDbBlockBegin
  2
DBLAYERS
 70
     0
 10
0.0
 20
0.0
 30
0.0
  3
DBLAYERS
  1

  0
ENDBLK
  5
8C
330
8A
100
AcDbEntity
  8
0
100
AcDbBlockEnd
  0
BLOCK
  5
8E
330
8D
100
AcDbEntity
  8
0
100
AcDbBlockBegin
  2
BOARD_10
 70
     0
 10
0.0
 20
0.0
 30
0.0
  3
BOARD_10
  1

  0
ENDBLK
  5
8F
330
8D
100
AcDbEntity
  8
0
100
AcDbBlockEnd
  0
BLOCK
  5
91
330
90
100
AcDbEntity
  8
0
100
AcDbBlockBegin
  2
DRAWING_1
 70
     0
 10
0.0
 20
0.0
 30
0.0
  3
DRAWING_1
  1

  0
ENDBLK
  5
92
330
90
100
AcDbEntity
  8
0
100
AcDbBlockEnd
  0
BLOCK
  5
94
330
93
100
AcDbEntity
  8
0
100
AcDbBlockBegin
  2
DRAWING_2
 70
     0
 10
0.0
 20
0.0
 30
0.0
  3
DRAWING_2
  1

  0
ENDBLK
  5
95
330
93
100
AcDbEntity
  8
0
100
AcDbBlockEnd
  0
BLOCK
  5
97
330
96
100
AcDbEntity
  8
0
100
AcDbBlockBegin
  2
DRAWING_3
 70
     0
 10
0.0
 20
0.0
 30
0.0
  3
DRAWING_3
  1

  0
ENDBLK
  5
98
330
96
100
AcDbEntity
  8
0
100
AcDbBlockEnd
  0
BLOCK
  5
9A
330
99
100
AcDbEntity
  8
0
100
AcDbBlockBegin
  2
DRAWING_4
 70
     0
 10
0.0
 20
0.0
 30
0.0
  3
DRAWING_4
  1

  0
ENDBLK
  5
9B
330
99
100
AcDbEntity
  8
0
100
AcDbBlockEnd
  0
BLOCK
  5
9D
330
9C
100
AcDbEntity
  8
0
100
AcDbBlockBegin
  2
DRAWING_5
 70
     0
 10
0.0
 20
0.0
 30
0.0
  3
DRAWING_5
  1

  0
ENDBLK
  5
9E
330
9C
100
AcDbEntity
  8
0
100
AcDbBlockEnd
  0
BLOCK
  5
A0
330
9F
100
AcDbEntity
  8
0
100
AcDbBlockBegin
  2
DRAWING_6
 70
     0
 10
0.0
 20
0.0
 30
0.0
  3
DRAWING_6
  1

  0
ENDBLK
  5
A1
330
9F
100
AcDbEntity
  8
0
100
AcDbBlockEnd
  0
BLOCK
  5
A3
330
A2
100
AcDbEntity
  8
0
100
AcDbBlockBegin
  2
DRAWING_7
 70
     0
 10
0.0
 20
0.0
 30
0.0
  3
DRAWING_7
  1

  0
ENDBLK
  5
A4
330
A2
100
AcDbEntity
  8
0
100
AcDbBlockEnd
  0
BLOCK
  5
A6
330
A5
100
AcDbEntity
  8
0
100
AcDbBlockBegin
  2
DRAWING_8
 70
     0
 10
0.0
 20
0.0
 30
0.0
  3
DRAWING_8
  1

  0
ENDBLK
  5
A7
330
A5
100
AcDbEntity
  8
0
100
AcDbBlockEnd
  0
BLOCK
  5
A9
330
A8
100
AcDbEntity
  8
0
100
AcDbBlockBegin
  2
DRAWING_9
 70
     0
 10
0.0
 20
0.0
 30
0.0
  3
DRAWING_9
  1

  0
ENDBLK
  5
AA
330
A8
100
AcDbEntity
  8
0
100
AcDbBlockEnd
  0
BLOCK
  5
AC
330
AB
100
AcDbEntity
  8
0
100
AcDbBlockBegin
  2
DRAWING_11
 70
     0
 10
0.0
 20
0.0
 30
0.0
  3
DRAWING_11
  1

  0
ENDBLK
  5
AD
330
AB
100
AcDbEntity
  8
0
100
AcDbBlockEnd
  0
BLOCK
  5
AF
330
AE
100
AcDbEntity
  8
0
100
AcDbBlockBegin
  2
DRAWING_12
 70
     0
 10
0.0
 20
0.0
 30
0.0
  3
DRAWING_12
  1

  0
ENDBLK
  5
B0
330
AE
100
AcDbEntity
  8
0
100
AcDbBlockEnd
  0
BLOCK
  5
B2
330
B1
100
AcDbEntity
  8
0
100
AcDbBlockBegin
  2
DRAWING_13
 70
     0
 10
0.0
 20
0.0
 30
0.0
  3
DRAWING_13
  1

  0
ENDBLK
  5
B3
330
B1
100
AcDbEntity
  8
0
100
AcDbBlockEnd
  0
BLOCK
  5
B5
330
B4
100
AcDbEntity
  8
0
100
AcDbBlockBegin
  2
DRAWING_14
 70
     0
 10
0.0
 20
0.0
 30
0.0
  3
DRAWING_14
  1

  0
ENDBLK
  5
B6
330
B4
100
AcDbEntity
  8
0
100
AcDbBlockEnd
  0
BLOCK
  5
B8
330
B7
100
AcDbEntity
  8
0
100
AcDbBlockBegin
  2
DRAWING_15
 70
     0
 10
0.0
 20
0.0
 30
0.0
  3
DRAWING_15
  1

  0
ENDBLK
  5
B9
330
B7
100
AcDbEntity
  8
0
100
AcDbBlockEnd
  0
BLOCK
  5
BB
330
BA
100
AcDbEntity
  8
0
100
AcDbBlockBegin
  2
DRAWING_42
 70
     0
 10
0.0
 20
0.0
 30
0.0
  3
DRAWING_42
  1

  0
ENDBLK
  5
BC
330
BA
100
AcDbEntity
  8
0
100
AcDbBlockEnd
  0
BLOCK
  5
BE
330
BD
100
AcDbEntity
  8
0
100
AcDbBlockBegin
  2
KEEPOUT_16
 70
     0
 10
0.0
 20
0.0
 30
0.0
  3
KEEPOUT_16
  1

  0
ENDBLK
  5
BF
330
BD
100
AcDbEntity
  8
0
100
AcDbBlockEnd
  0
BLOCK
  5
C1
330
C0
100
AcDbEntity
  8
0
100
AcDbBlockBegin
  2
KEEPOUT_17
 70
     0
 10
0.0
 20
0.0
 30
0.0
  3
KEEPOUT_17
  1

  0
ENDBLK
  5
C2
330
C0
100
AcDbEntity
  8
0
100
AcDbBlockEnd
  0
BLOCK
  5
C4
330
C3
100
AcDbEntity
  8
0
100
AcDbBlockBegin
  2
KEEPOUT_18
 70
     0
 10
0.0
 20
0.0
 30
0.0
  3
KEEPOUT_18
  1

  0
ENDBLK
  5
C5
330
C3
100
AcDbEntity
  8
0
100
AcDbBlockEnd
  0
BLOCK
  5
C7
330
C6
100
AcDbEntity
  8
0
100
AcDbBlockBegin
  2
KEEPOUT_19
 70
     0
 10
0.0
 20
0.0
 30
0.0
  3
KEEPOUT_19
  1

  0
ENDBLK
  5
C8
330
C6
100
AcDbEntity
  8
0
100
AcDbBlockEnd
  0
BLOCK
  5
CC
330
C9
100
AcDbEntity
  8
0
100
AcDbBlockBegin
  2
PART_TOP_0
 70
     0
 10
0.0
 20
0.0
 30
0.0
  3
PART_TOP_0
  1

  0
INSERT
  5
CA
330
C9
100
AcDbEntity
  8
0
  6
CONTINUOUS
 62
     7
100
AcDbBlockReference
  2

 10
0.0
 20
0.0
 30
0.0
  0
INSERT
  5
CB
330
C9
100
AcDbEntity
  8
0
  6
CONTINUOUS
 62
     7
100
AcDbBlockReference
  2

 10
0.0
 20
0.0
 30
0.0
  0
ENDBLK
  5
CD
330
C9
100
AcDbEntity
  8
0
100
AcDbBlockEnd
  0
BLOCK
  5
D1
330
CE
100
AcDbEntity
  8
0
100
AcDbBlockBegin
  2
PART_TOP_1
 70
     0
 10
0.0
 20
0.0
 30
0.0
  3
PART_TOP_1
  1

  0
INSERT
  5
CF
330
CE
100
AcDbEntity
  8
0
  6
CONTINUOUS
 62
     7
100
AcDbBlockReference
  2

 10
0.0
 20
0.0
 30
0.0
  0
INSERT
  5
D0
330
CE
100
AcDbEntity
  8
0
  6
CONTINUOUS
 62
     7
100
AcDbBlockReference
  2

 10
0.0
 20
0.0
 30
0.0
  0
ENDBLK
  5
D2
330
CE
100
AcDbEntity
  8
0
100
AcDbBlockEnd
  0
BLOCK
  5
D6
330
D3
100
AcDbEntity
  8
0
100
AcDbBlockBegin
  2
PART_TOP_2
 70
     0
 10
0.0
 20
0.0
 30
0.0
  3
PART_TOP_2
  1

  0
INSERT
  5
D4
330
D3
100
AcDbEntity
  8
0
  6
CONTINUOUS
 62
     7
100
AcDbBlockReference
  2

 10
0.0
 20
0.0
 30
0.0
  0
INSERT
  5
D5
330
D3
100
AcDbEntity
  8
0
  6
CONTINUOUS
 62
     7
100
AcDbBlockReference
  2

 10
0.0
 20
0.0
 30
0.0
  0
ENDBLK
  5
D7
330
D3
100
AcDbEntity
  8
0
100
AcDbBlockEnd
  0
BLOCK
  5
DB
330
D8
100
AcDbEntity
  8
0
100
AcDbBlockBegin
  2
PART_TOP_3
 70
     0
 10
0.0
 20
0.0
 30
0.0
  3
PART_TOP_3
  1

  0
INSERT
  5
D9
330
D8
100
AcDbEntity
  8
0
  6
CONTINUOUS
 62
     7
100
AcDbBlockReference
  2

 10
0.0
 20
0.0
 30
0.0
  0
INSERT
  5
DA
330
D8
100
AcDbEntity
  8
0
  6
CONTINUOUS
 62
     7
100
AcDbBlockReference
  2

 10
0.0
 20
0.0
 30
0.0
  0
ENDBLK
  5
DC
330
D8
100
AcDbEntity
  8
0
100
AcDbBlockEnd
  0
BLOCK
  5
E0
330
DD
100
AcDbEntity
  8
0
100
AcDbBlockBegin
  2
PART_TOP_4
 70
     0
 10
0.0
 20
0.0
 30
0.0
  3
PART_TOP_4
  1

  0
INSERT
  5
DE
330
DD
100
AcDbEntity
  8
0
  6
CONTINUOUS
 62
     7
100
AcDbBlockReference
  2

 10
0.0
 20
0.0
 30
0.0
  0
INSERT
  5
DF
330
DD
100
AcDbEntity
  8
0
  6
CONTINUOUS
 62
     7
100
AcDbBlockReference
  2

 10
0.0
 20
0.0
 30
0.0
  0
ENDBLK
  5
E1
330
DD
100
AcDbEntity
  8
0
100
AcDbBlockEnd
  0
BLOCK
  5
E5
330
E2
100
AcDbEntity
  8
0
100
AcDbBlockBegin
  2
PART_TOP_5
 70
     0
 10
0.0
 20
0.0
 30
0.0
  3
PART_TOP_5
  1

  0
INSERT
  5
E3
330
E2
100
AcDbEntity
  8
0
  6
CONTINUOUS
 62
     7
100
AcDbBlockReference
  2

 10
0.0
 20
0.0
 30
0.0
  0
INSERT
  5
E4
330
E2
100
AcDbEntity
  8
0
  6
CONTINUOUS
 62
     7
100
AcDbBlockReference
  2

 10
0.0
 20
0.0
 30
0.0
  0
ENDBLK
  5
E6
330
E2
100
AcDbEntity
  8
0
100
AcDbBlockEnd
  0
BLOCK
  5
EA
330
E7
100
AcDbEntity
  8
0
100
AcDbBlockBegin
  2
PART_TOP_6
 70
     0
 10
0.0
 20
0.0
 30
0.0
  3
PART_TOP_6
  1

  0
INSERT
  5
E8
330
E7
100
AcDbEntity
  8
0
  6
CONTINUOUS
 62
     7
100
AcDbBlockReference
  2

 10
0.0
 20
0.0
 30
0.0
  0
INSERT
  5
E9
330
E7
100
AcDbEntity
  8
0
  6
CONTINUOUS
 62
     7
100
AcDbBlockReference
  2

 10
0.0
 20
0.0
 30
0.0
  0
ENDBLK
  5
EB
330
E7
100
AcDbEntity
  8
0
100
AcDbBlockEnd
  0
BLOCK
  5
EF
330
EC
100
AcDbEntity
  8
0
100
AcDbBlockBegin
  2
PART_TOP_7
 70
     0
 10
0.0
 20
0.0
 30
0.0
  3
PART_TOP_7
  1

  0
INSERT
  5
ED
330
EC
100
AcDbEntity
  8
0
  6
CONTINUOUS
 62
     7
100
AcDbBlockReference
  2

 10
0.0
 20
0.0
 30
0.0
  0
INSERT
  5
EE
330
EC
100
AcDbEntity
  8
0
  6
CONTINUOUS
 62
     7
100
AcDbBlockReference
  2

 10
0.0
 20
0.0
 30
0.0
  0
ENDBLK
  5
F0
330
EC
100
AcDbEntity
  8
0
100
AcDbBlockEnd
  0
BLOCK
  5
F4
330
F1
100
AcDbEntity
  8
0
100
AcDbBlockBegin
  2
PART_TOP_8
 70
     0
 10
0.0
 20
0.0
 30
0.0
  3
PART_TOP_8
  1

  0
INSERT
  5
F2
330
F1
100
AcDbEntity
  8
0
  6
CONTINUOUS
 62
     7
100
AcDbBlockReference
  2

 10
0.0
 20
0.0
 30
0.0
  0
INSERT
  5
F3
330
F1
100
AcDbEntity
  8
0
  6
CONTINUOUS
 62
     7
100
AcDbBlockReference
  2

 10
0.0
 20
0.0
 30
0.0
  0
ENDBLK
  5
F5
330
F1
100
AcDbEntity
  8
0
100
AcDbBlockEnd
  0
BLOCK
  5
F9
330
F6
100
AcDbEntity
  8
0
100
AcDbBlockBegin
  2
PART_TOP_9
 70
     0
 10
0.0
 20
0.0
 30
0.0
  3
PART_TOP_9
  1

  0
INSERT
  5
F7
330
F6
100
AcDbEntity
  8
0
  6
CONTINUOUS
 62
     7
100
AcDbBlockReference
  2

 10
0.0
 20
0.0
 30
0.0
  0
INSERT
  5
F8
330
F6
100
AcDbEntity
  8
0
  6
CONTINUOUS
 62
     7
100
AcDbBlockReference
  2

 10
0.0
 20
0.0
 30
0.0
  0
ENDBLK
  5
FA
330
F6
100
AcDbEntity
  8
0
100
AcDbBlockEnd
  0
BLOCK
  5
FE
330
FB
100
AcDbEntity
  8
0
100
AcDbBlockBegin
  2
PART_TOP_10
 70
     0
 10
0.0
 20
0.0
 30
0.0
  3
PART_TOP_10
  1

  0
INSERT
  5
FC
330
FB
100
AcDbEntity
  8
0
  6
CONTINUOUS
 62
     7
100
AcDbBlockReference
  2

 10
0.0
 20
0.0
 30
0.0
  0
INSERT
  5
FD
330
FB
100
AcDbEntity
  8
0
  6
CONTINUOUS
 62
     7
100
AcDbBlockReference
  2

 10
0.0
 20
0.0
 30
0.0
  0
ENDBLK
  5
FF
330
FB
100
AcDbEntity
  8
0
100
AcDbBlockEnd
  0
BLOCK
  5
103
330
100
100
AcDbEntity
  8
0
100
AcDbBlockBegin
  2
PART_TOP_11
 70
     0
 10
0.0
 20
0.0
 30
0.0
  3
PART_TOP_11
  1

  0
INSERT
  5
101
330
100
100
AcDbEntity
  8
0
  6
CONTINUOUS
 62
     7
100
AcDbBlockReference
  2

 10
0.0
 20
0.0
 30
0.0
  0
INSERT
  5
102
330
100
100
AcDbEntity
  8
0
  6
CONTINUOUS
 62
     7
100
AcDbBlockReference
  2

 10
0.0
 20
0.0
 30
0.0
  0
ENDBLK
  5
104
330
100
100
AcDbEntity
  8
0
100
AcDbBlockEnd
  0
BLOCK
  5
108
330
105
100
AcDbEntity
  8
0
100
AcDbBlockBegin
  2
PART_TOP_12
 70
     0
 10
0.0
 20
0.0
 30
0.0
  3
PART_TOP_12
  1

  0
INSERT
  5
106
330
105
100
AcDbEntity
  8
0
  6
CONTINUOUS
 62
     7
100
AcDbBlockReference
  2

 10
0.0
 20
0.0
 30
0.0
  0
INSERT
  5
107
330
105
100
AcDbEntity
  8
0
  6
CONTINUOUS
 62
     7
100
AcDbBlockReference
  2

 10
0.0
 20
0.0
 30
0.0
  0
ENDBLK
  5
109
330
105
100
AcDbEntity
  8
0
100
AcDbBlockEnd
  0
BLOCK
  5
10D
330
10A
100
AcDbEntity
  8
0
100
AcDbBlockBegin
  2
PART_TOP_13
 70
     0
 10
0.0
 20
0.0
 30
0.0
  3
PART_TOP_13
  1

  0
INSERT
  5
10B
330
10A
100
AcDbEntity
  8
0
  6
CONTINUOUS
 62
     7
100
AcDbBlockReference
  2

 10
0.0
 20
0.0
 30
0.0
  0
INSERT
  5
10C
330
10A
100
AcDbEntity
  8
0
  6
CONTINUOUS
 62
     7
100
AcDbBlockReference
  2

 10
0.0
 20
0.0
 30
0.0
  0
ENDBLK
  5
10E
330
10A
100
AcDbEntity
  8
0
100
AcDbBlockEnd
  0
BLOCK
  5
112
330
10F
100
AcDbEntity
  8
0
100
AcDbBlockBegin
  2
PART_TOP_14
 70
     0
 10
0.0
 20
0.0
 30
0.0
  3
PART_TOP_14
  1

  0
INSERT
  5
110
330
10F
100
AcDbEntity
  8
0
  6
CONTINUOUS
 62
     7
100
AcDbBlockReference
  2

 10
0.0
 20
0.0
 30
0.0
  0
INSERT
  5
111
330
10F
100
AcDbEntity
  8
0
  6
CONTINUOUS
 62
     7
100
AcDbBlockReference
  2

 10
0.0
 20
0.0
 30
0.0
  0
ENDBLK
  5
113
330
10F
100
AcDbEntity
  8
0
100
AcDbBlockEnd
  0
BLOCK
  5
117
330
114
100
AcDbEntity
  8
0
100
AcDbBlockBegin
  2
PART_TOP_15
 70
     0
 10
0.0
 20
0.0
 30
0.0
  3
PART_TOP_15
  1

  0
INSERT
  5
115
330
114
100
AcDbEntity
  8
0
  6
CONTINUOUS
 62
     7
100
AcDbBlockReference
  2

 10
0.0
 20
0.0
 30
0.0
  0
INSERT
  5
116
330
114
100
AcDbEntity
  8
0
  6
CONTINUOUS
 62
     7
100
AcDbBlockReference
  2

 10
0.0
 20
0.0
 30
0.0
  0
ENDBLK
  5
118
330
114
100
AcDbEntity
  8
0
100
AcDbBlockEnd
  0
BLOCK
  5
11C
330
119
100
AcDbEntity
  8
0
100
AcDbBlockBegin
  2
PART_TOP_16
 70
     0
 10
0.0
 20
0.0
 30
0.0
  3
PART_TOP_16
  1

  0
INSERT
  5
11A
330
119
100
AcDbEntity
  8
0
  6
CONTINUOUS
 62
     7
100
AcDbBlockReference
  2

 10
0.0
 20
0.0
 30
0.0
  0
INSERT
  5
11B
330
119
100
AcDbEntity
  8
0
  6
CONTINUOUS
 62
     7
100
AcDbBlockReference
  2

 10
0.0
 20
0.0
 30
0.0
  0
ENDBLK
  5
11D
330
119
100
AcDbEntity
  8
0
100
AcDbBlockEnd
  0
BLOCK
  5
121
330
11E
100
AcDbEntity
  8
0
100
AcDbBlockBegin
  2
PART_TOP_17
 70
     0
 10
0.0
 20
0.0
 30
0.0
  3
PART_TOP_17
  1

  0
INSERT
  5
11F
330
11E
100
AcDbEntity
  8
0
  6
CONTINUOUS
 62
     7
100
AcDbBlockReference
  2

 10
0.0
 20
0.0
 30
0.0
  0
INSERT
  5
120
330
11E
100
AcDbEntity
  8
0
  6
CONTINUOUS
 62
     7
100
AcDbBlockReference
  2

 10
0.0
 20
0.0
 30
0.0
  0
ENDBLK
  5
122
330
11E
100
AcDbEntity
  8
0
100
AcDbBlockEnd
  0
BLOCK
  5
126
330
123
100
AcDbEntity
  8
0
100
AcDbBlockBegin
  2
PART_TOP_18
 70
     0
 10
0.0
 20
0.0
 30
0.0
  3
PART_TOP_18
  1

  0
INSERT
  5
124
330
123
100
AcDbEntity
  8
0
  6
CONTINUOUS
 62
     7
100
AcDbBlockReference
  2

 10
0.0
 20
0.0
 30
0.0
  0
INSERT
  5
125
330
123
100
AcDbEntity
  8
0
  6
CONTINUOUS
 62
     7
100
AcDbBlockReference
  2

 10
0.0
 20
0.0
 30
0.0
  0
ENDBLK
  5
127
330
123
100
AcDbEntity
  8
0
100
AcDbBlockEnd
  0
BLOCK
  5
12B
330
128
100
AcDbEntity
  8
0
100
AcDbBlockBegin
  2
PART_TOP_19
 70
     0
 10
0.0
 20
0.0
 30
0.0
  3
PART_TOP_19
  1

  0
INSERT
  5
129
330
128
100
AcDbEntity
  8
0
  6
CONTINUOUS
 62
     7
100
AcDbBlockReference
  2

 10
0.0
 20
0.0
 30
0.0
  0
INSERT
  5
12A
330
128
100
AcDbEntity
  8
0
  6
CONTINUOUS
 62
     7
100
AcDbBlockReference
  2

 10
0.0
 20
0.0
 30
0.0
  0
ENDBLK
  5
12C
330
128
100
AcDbEntity
  8
0
100
AcDbBlockEnd
  0
BLOCK
  5
130
330
12D
100
AcDbEntity
  8
0
100
AcDbBlockBegin
  2
PART_TOP_20
 70
     0
 10
0.0
 20
0.0
 30
0.0
  3
PART_TOP_20
  1

  0
INSERT
  5
12E
330
12D
100
AcDbEntity
  8
0
  6
CONTINUOUS
 62
     7
100
AcDbBlockReference
  2

 10
0.0
 20
0.0
 30
0.0
  0
INSERT
  5
12F
330
12D
100
AcDbEntity
  8
0
  6
CONTINUOUS
 62
     7
100
AcDbBlockReference
  2

 10
0.0
 20
0.0
 30
0.0
  0
ENDBLK
  5
131
330
12D
100
AcDbEntity
  8
0
100
AcDbBlockEnd
  0
BLOCK
  5
135
330
132
100
AcDbEntity
  8
0
100
AcDbBlockBegin
  2
PART_TOP_21
 70
     0
 10
0.0
 20
0.0
 30
0.0
  3
PART_TOP_21
  1

  0
INSERT
  5
133
330
132
100
AcDbEntity
  8
0
  6
CONTINUOUS
 62
     7
100
AcDbBlockReference
  2

 10
0.0
 20
0.0
 30
0.0
  0
INSERT
  5
134
330
132
100
AcDbEntity
  8
0
  6
CONTINUOUS
 62
     7
100
AcDbBlockReference
  2

 10
0.0
 20
0.0
 30
0.0
  0
ENDBLK
  5
136
330
132
100
AcDbEntity
  8
0
100
AcDbBlockEnd
  0
BLOCK
  5
13A
330
137
100
AcDbEntity
  8
0
100
AcDbBlockBegin
  2
PART_TOP_22
 70
     0
 10
0.0
 20
0.0
 30
0.0
  3
PART_TOP_22
  1

  0
INSERT
  5
138
330
137
100
AcDbEntity
  8
0
  6
CONTINUOUS
 62
     7
100
AcDbBlockReference
  2

 10
0.0
 20
0.0
 30
0.0
  0
INSERT
  5
139
330
137
100
AcDbEntity
  8
0
  6
CONTINUOUS
 62
     7
100
AcDbBlockReference
  2

 10
0.0
 20
0.0
 30
0.0
  0
ENDBLK
  5
13B
330
137
100
AcDbEntity
  8
0
100
AcDbBlockEnd
  0
BLOCK
  5
13F
330
13C
100
AcDbEntity
  8
0
100
AcDbBlockBegin
  2
PART_TOP_23
 70
     0
 10
0.0
 20
0.0
 30
0.0
  3
PART_TOP_23
  1

  0
INSERT
  5
13D
330
13C
100
AcDbEntity
  8
0
  6
CONTINUOUS
 62
     7
100
AcDbBlockReference
  2

 10
0.0
 20
0.0
 30
0.0
  0
INSERT
  5
13E
330
13C
100
AcDbEntity
  8
0
  6
CONTINUOUS
 62
     7
100
AcDbBlockReference
  2

 10
0.0
 20
0.0
 30
0.0
  0
ENDBLK
  5
140
330
13C
100
AcDbEntity
  8
0
100
AcDbBlockEnd
  0
BLOCK
  5
144
330
141
100
AcDbEntity
  8
0
100
AcDbBlockBegin
  2
PART_TOP_24
 70
     0
 10
0.0
 20
0.0
 30
0.0
  3
PART_TOP_24
  1

  0
INSERT
  5
142
330
141
100
AcDbEntity
  8
0
  6
CONTINUOUS
 62
     7
100
AcDbBlockReference
  2

 10
0.0
 20
0.0
 30
0.0
  0
INSERT
  5
143
330
141
100
AcDbEntity
  8
0
  6
CONTINUOUS
 62
     7
100
AcDbBlockReference
  2

 10
0.0
 20
0.0
 30
0.0
  0
ENDBLK
  5
145
330
141
100
AcDbEntity
  8
0
100
AcDbBlockEnd
  0
BLOCK
  5
149
330
146
100
AcDbEntity
  8
0
100
AcDbBlockBegin
  2
PART_TOP_25
 70
     0
 10
0.0
 20
0.0
 30
0.0
  3
PART_TOP_25
  1

  0
INSERT
  5
147
330
146
100
AcDbEntity
  8
0
  6
CONTINUOUS
 62
     7
100
AcDbBlockReference
  2

 10
0.0
 20
0.0
 30
0.0
  0
INSERT
  5
148
330
146
100
AcDbEntity
  8
0
  6
CONTINUOUS
 62
     7
100
AcDbBlockReference
  2

 10
0.0
 20
0.0
 30
0.0
  0
ENDBLK
  5
14A
330
146
100
AcDbEntity
  8
0
100
AcDbBlockEnd
  0
BLOCK
  5
14E
330
14B
100
AcDbEntity
  8
0
100
AcDbBlockBegin
  2
PART_TOP_26
 70
     0
 10
0.0
 20
0.0
 30
0.0
  3
PART_TOP_26
  1

  0
INSERT
  5
14C
330
14B
100
AcDbEntity
  8
0
  6
CONTINUOUS
 62
     7
100
AcDbBlockReference
  2

 10
0.0
 20
0.0
 30
0.0
  0
INSERT
  5
14D
330
14B
100
AcDbEntity
  8
0
  6
CONTINUOUS
 62
     7
100
AcDbBlockReference
  2

 10
0.0
 20
0.0
 30
0.0
  0
ENDBLK
  5
14F
330
14B
100
AcDbEntity
  8
0
100
AcDbBlockEnd
  0
BLOCK
  5
153
330
150
100
AcDbEntity
  8
0
100
AcDbBlockBegin
  2
PART_TOP_27
 70
     0
 10
0.0
 20
0.0
 30
0.0
  3
PART_TOP_27
  1

  0
INSERT
  5
151
330
150
100
AcDbEntity
  8
0
  6
CONTINUOUS
 62
     7
100
AcDbBlockReference
  2

 10
0.0
 20
0.0
 30
0.0
  0
INSERT
  5
152
330
150
100
AcDbEntity
  8
0
  6
CONTINUOUS
 62
     7
100
AcDbBlockReference
  2

 10
0.0
 20
0.0
 30
0.0
  0
ENDBLK
  5
154
330
150
100
AcDbEntity
  8
0
100
AcDbBlockEnd
  0
BLOCK
  5
158
330
155
100
AcDbEntity
  8
0
100
AcDbBlockBegin
  2
PART_TOP_28
 70
     0
 10
0.0
 20
0.0
 30
0.0
  3
PART_TOP_28
  1

  0
INSERT
  5
156
330
155
100
AcDbEntity
  8
0
  6
CONTINUOUS
 62
     7
100
AcDbBlockReference
  2

 10
0.0
 20
0.0
 30
0.0
  0
INSERT
  5
157
330
155
100
AcDbEntity
  8
0
  6
CONTINUOUS
 62
     7
100
AcDbBlockReference
  2

 10
0.0
 20
0.0
 30
0.0
  0
ENDBLK
  5
159
330
155
100
AcDbEntity
  8
0
100
AcDbBlockEnd
  0
BLOCK
  5
15D
330
15A
100
AcDbEntity
  8
0
100
AcDbBlockBegin
  2
PART_TOP_29
 70
     0
 10
0.0
 20
0.0
 30
0.0
  3
PART_TOP_29
  1

  0
INSERT
  5
15B
330
15A
100
AcDbEntity
  8
0
  6
CONTINUOUS
 62
     7
100
AcDbBlockReference
  2

 10
0.0
 20
0.0
 30
0.0
  0
INSERT
  5
15C
330
15A
100
AcDbEntity
  8
0
  6
CONTINUOUS
 62
     7
100
AcDbBlockReference
  2

 10
0.0
 20
0.0
 30
0.0
  0
ENDBLK
  5
15E
330
15A
100
AcDbEntity
  8
0
100
AcDbBlockEnd
  0
BLOCK
  5
162
330
15F
100
AcDbEntity
  8
0
100
AcDbBlockBegin
  2
PART_TOP_30
 70
     0
 10
0.0
 20
0.0
 30
0.0
  3
PART_TOP_30
  1

  0
INSERT
  5
160
330
15F
100
AcDbEntity
  8
0
  6
CONTINUOUS
 62
     7
100
AcDbBlockReference
  2

 10
0.0
 20
0.0
 30
0.0
  0
INSERT
  5
161
330
15F
100
AcDbEntity
  8
0
  6
CONTINUOUS
 62
     7
100
AcDbBlockReference
  2

 10
0.0
 20
0.0
 30
0.0
  0
ENDBLK
  5
163
330
15F
100
AcDbEntity
  8
0
100
AcDbBlockEnd
  0
BLOCK
  5
167
330
164
100
AcDbEntity
  8
0
100
AcDbBlockBegin
  2
PART_TOP_31
 70
     0
 10
0.0
 20
0.0
 30
0.0
  3
PART_TOP_31
  1

  0
INSERT
  5
165
330
164
100
AcDbEntity
  8
0
  6
CONTINUOUS
 62
     7
100
AcDbBlockReference
  2

 10
0.0
 20
0.0
 30
0.0
  0
INSERT
  5
166
330
164
100
AcDbEntity
  8
0
  6
CONTINUOUS
 62
     7
100
AcDbBlockReference
  2

 10
0.0
 20
0.0
 30
0.0
  0
ENDBLK
  5
168
330
164
100
AcDbEntity
  8
0
100
AcDbBlockEnd
  0
BLOCK
  5
16C
330
169
100
AcDbEntity
  8
0
100
AcDbBlockBegin
  2
PART_TOP_32
 70
     0
 10
0.0
 20
0.0
 30
0.0
  3
PART_TOP_32
  1

  0
INSERT
  5
16A
330
169
100
AcDbEntity
  8
0
  6
CONTINUOUS
 62
     7
100
AcDbBlockReference
  2

 10
0.0
 20
0.0
 30
0.0
  0
INSERT
  5
16B
330
169
100
AcDbEntity
  8
0
  6
CONTINUOUS
 62
     7
100
AcDbBlockReference
  2

 10
0.0
 20
0.0
 30
0.0
  0
ENDBLK
  5
16D
330
169
100
AcDbEntity
  8
0
100
AcDbBlockEnd
  0
BLOCK
  5
171
330
16E
100
AcDbEntity
  8
0
100
AcDbBlockBegin
  2
PART_TOP_33
 70
     0
 10
0.0
 20
0.0
 30
0.0
  3
PART_TOP_33
  1

  0
INSERT
  5
16F
330
16E
100
AcDbEntity
  8
0
  6
CONTINUOUS
 62
     7
100
AcDbBlockReference
  2

 10
0.0
 20
0.0
 30
0.0
  0
INSERT
  5
170
330
16E
100
AcDbEntity
  8
0
  6
CONTINUOUS
 62
     7
100
AcDbBlockReference
  2

 10
0.0
 20
0.0
 30
0.0
  0
ENDBLK
  5
172
330
16E
100
AcDbEntity
  8
0
100
AcDbBlockEnd
  0
BLOCK
  5
176
330
173
100
AcDbEntity
  8
0
100
AcDbBlockBegin
  2
PART_TOP_34
 70
     0
 10
0.0
 20
0.0
 30
0.0
  3
PART_TOP_34
  1

  0
INSERT
  5
174
330
173
100
AcDbEntity
  8
0
  6
CONTINUOUS
 62
     7
100
AcDbBlockReference
  2

 10
0.0
 20
0.0
 30
0.0
  0
INSERT
  5
175
330
173
100
AcDbEntity
  8
0
  6
CONTINUOUS
 62
     7
100
AcDbBlockReference
  2

 10
0.0
 20
0.0
 30
0.0
  0
ENDBLK
  5
177
330
173
100
AcDbEntity
  8
0
100
AcDbBlockEnd
  0
BLOCK
  5
17B
330
178
100
AcDbEntity
  8
0
100
AcDbBlockBegin
  2
PART_TOP_35
 70
     0
 10
0.0
 20
0.0
 30
0.0
  3
PART_TOP_35
  1

  0
INSERT
  5
179
330
178
100
AcDbEntity
  8
0
  6
CONTINUOUS
 62
     7
100
AcDbBlockReference
  2

 10
0.0
 20
0.0
 30
0.0
  0
INSERT
  5
17A
330
178
100
AcDbEntity
  8
0
  6
CONTINUOUS
 62
     7
100
AcDbBlockReference
  2

 10
0.0
 20
0.0
 30
0.0
  0
ENDBLK
  5
17C
330
178
100
AcDbEntity
  8
0
100
AcDbBlockEnd
  0
BLOCK
  5
180
330
17D
100
AcDbEntity
  8
0
100
AcDbBlockBegin
  2
PART_TOP_36
 70
     0
 10
0.0
 20
0.0
 30
0.0
  3
PART_TOP_36
  1

  0
INSERT
  5
17E
330
17D
100
AcDbEntity
  8
0
  6
CONTINUOUS
 62
     7
100
AcDbBlockReference
  2

 10
0.0
 20
0.0
 30
0.0
  0
INSERT
  5
17F
330
17D
100
AcDbEntity
  8
0
  6
CONTINUOUS
 62
     7
100
AcDbBlockReference
  2

 10
0.0
 20
0.0
 30
0.0
  0
ENDBLK
  5
181
330
17D
100
AcDbEntity
  8
0
100
AcDbBlockEnd
  0
BLOCK
  5
185
330
182
100
AcDbEntity
  8
0
100
AcDbBlockBegin
  2
PART_TOP_37
 70
     0
 10
0.0
 20
0.0
 30
0.0
  3
PART_TOP_37
  1

  0
INSERT
  5
183
330
182
100
AcDbEntity
  8
0
  6
CONTINUOUS
 62
     7
100
AcDbBlockReference
  2

 10
0.0
 20
0.0
 30
0.0
  0
INSERT
  5
184
330
182
100
AcDbEntity
  8
0
  6
CONTINUOUS
 62
     7
100
AcDbBlockReference
  2

 10
0.0
 20
0.0
 30
0.0
  0
ENDBLK
  5
186
330
182
100
AcDbEntity
  8
0
100
AcDbBlockEnd
  0
BLOCK
  5
18A
330
187
100
AcDbEntity
  8
0
100
AcDbBlockBegin
  2
PART_TOP_38
 70
     0
 10
0.0
 20
0.0
 30
0.0
  3
PART_TOP_38
  1

  0
INSERT
  5
188
330
187
100
AcDbEntity
  8
0
  6
CONTINUOUS
 62
     7
100
AcDbBlockReference
  2

 10
0.0
 20
0.0
 30
0.0
  0
INSERT
  5
189
330
187
100
AcDbEntity
  8
0
  6
CONTINUOUS
 62
     7
100
AcDbBlockReference
  2

 10
0.0
 20
0.0
 30
0.0
  0
ENDBLK
  5
18B
330
187
100
AcDbEntity
  8
0
100
AcDbBlockEnd
  0
BLOCK
  5
18F
330
18C
100
AcDbEntity
  8
0
100
AcDbBlockBegin
  2
PART_TOP_39
 70
     0
 10
0.0
 20
0.0
 30
0.0
  3
PART_TOP_39
  1

  0
INSERT
  5
18D
330
18C
100
AcDbEntity
  8
0
  6
CONTINUOUS
 62
     7
100
AcDbBlockReference
  2

 10
0.0
 20
0.0
 30
0.0
  0
INSERT
  5
18E
330
18C
100
AcDbEntity
  8
0
  6
CONTINUOUS
 62
     7
100
AcDbBlockReference
  2

 10
0.0
 20
0.0
 30
0.0
  0
ENDBLK
  5
190
330
18C
100
AcDbEntity
  8
0
100
AcDbBlockEnd
  0
BLOCK
  5
194
330
191
100
AcDbEntity
  8
0
100
AcDbBlockBegin
  2
PART_TOP_40
 70
     0
 10
0.0
 20
0.0
 30
0.0
  3
PART_TOP_40
  1

  0
INSERT
  5
192
330
191
100
AcDbEntity
  8
0
  6
CONTINUOUS
 62
     7
100
AcDbBlockReference
  2

 10
0.0
 20
0.0
 30
0.0
  0
INSERT
  5
193
330
191
100
AcDbEntity
  8
0
  6
CONTINUOUS
 62
     7
100
AcDbBlockReference
  2

 10
0.0
 20
0.0
 30
0.0
  0
ENDBLK
  5
195
330
191
100
AcDbEntity
  8
0
100
AcDbBlockEnd
  0
BLOCK
  5
199
330
196
100
AcDbEntity
  8
0
100
AcDbBlockBegin
  2
PART_TOP_41
 70
     0
 10
0.0
 20
0.0
 30
0.0
  3
PART_TOP_41
  1

  0
INSERT
  5
197
330
196
100
AcDbEntity
  8
0
  6
CONTINUOUS
 62
     7
100
AcDbBlockReference
  2

 10
0.0
 20
0.0
 30
0.0
  0
INSERT
  5
198
330
196
100
AcDbEntity
  8
0
  6
CONTINUOUS
 62
     7
100
AcDbBlockReference
  2

 10
0.0
 20
0.0
 30
0.0
  0
ENDBLK
  5
19A
330
196
100
AcDbEntity
  8
0
100
AcDbBlockEnd
  0
BLOCK
  5
19E
330
19B
100
AcDbEntity
  8
0
100
AcDbBlockBegin
  2
PART_TOP_42
 70
     0
 10
0.0
 20
0.0
 30
0.0
  3
PART_TOP_42
  1

  0
INSERT
  5
19C
330
19B
100
AcDbEntity
  8
0
  6
CONTINUOUS
 62
     7
100
AcDbBlockReference
  2

 10
0.0
 20
0.0
 30
0.0
  0
INSERT
  5
19D
330
19B
100
AcDbEntity
  8
0
  6
CONTINUOUS
 62
     7
100
AcDbBlockReference
  2

 10
0.0
 20
0.0
 30
0.0
  0
ENDBLK
  5
19F
330
19B
100
AcDbEntity
  8
0
100
AcDbBlockEnd
  0
BLOCK
  5
1A3
330
1A0
100
AcDbEntity
  8
0
100
AcDbBlockBegin
  2
PART_TOP_43
 70
     0
 10
0.0
 20
0.0
 30
0.0
  3
PART_TOP_43
  1

  0
INSERT
  5
1A1
330
1A0
100
AcDbEntity
  8
0
  6
CONTINUOUS
 62
     7
100
AcDbBlockReference
  2

 10
0.0
 20
0.0
 30
0.0
  0
INSERT
  5
1A2
330
1A0
100
AcDbEntity
  8
0
  6
CONTINUOUS
 62
     7
100
AcDbBlockReference
  2

 10
0.0
 20
0.0
 30
0.0
  0
ENDBLK
  5
1A4
330
1A0
100
AcDbEntity
  8
0
100
AcDbBlockEnd
  0
BLOCK
  5
1A8
330
1A5
100
AcDbEntity
  8
0
100
AcDbBlockBegin
  2
PART_TOP_44
 70
     0
 10
0.0
 20
0.0
 30
0.0
  3
PART_TOP_44
  1

  0
INSERT
  5
1A6
330
1A5
100
AcDbEntity
  8
0
  6
CONTINUOUS
 62
     7
100
AcDbBlockReference
  2

 10
0.0
 20
0.0
 30
0.0
  0
INSERT
  5
1A7
330
1A5
100
AcDbEntity
  8
0
  6
CONTINUOUS
 62
     7
100
AcDbBlockReference
  2

 10
0.0
 20
0.0
 30
0.0
  0
ENDBLK
  5
1A9
330
1A5
100
AcDbEntity
  8
0
100
AcDbBlockEnd
  0
BLOCK
  5
1AD
330
1AA
100
AcDbEntity
  8
0
100
AcDbBlockBegin
  2
PART_TOP_45
 70
     0
 10
0.0
 20
0.0
 30
0.0
  3
PART_TOP_45
  1

  0
INSERT
  5
1AB
330
1AA
100
AcDbEntity
  8
0
  6
CONTINUOUS
 62
     7
100
AcDbBlockReference
  2

 10
0.0
 20
0.0
 30
0.0
  0
INSERT
  5
1AC
330
1AA
100
AcDbEntity
  8
0
  6
CONTINUOUS
 62
     7
100
AcDbBlockReference
  2

 10
0.0
 20
0.0
 30
0.0
  0
ENDBLK
  5
1AE
330
1AA
100
AcDbEntity
  8
0
100
AcDbBlockEnd
  0
BLOCK
  5
1B2
330
1AF
100
AcDbEntity
  8
0
100
AcDbBlockBegin
  2
PART_TOP_46
 70
     0
 10
0.0
 20
0.0
 30
0.0
  3
PART_TOP_46
  1

  0
INSERT
  5
1B0
330
1AF
100
AcDbEntity
  8
0
  6
CONTINUOUS
 62
     7
100
AcDbBlockReference
  2

 10
0.0
 20
0.0
 30
0.0
  0
INSERT
  5
1B1
330
1AF
100
AcDbEntity
  8
0
  6
CONTINUOUS
 62
     7
100
AcDbBlockReference
  2

 10
0.0
 20
0.0
 30
0.0
  0
ENDBLK
  5
1B3
330
1AF
100
AcDbEntity
  8
0
100
AcDbBlockEnd
  0
BLOCK
  5
1B7
330
1B4
100
AcDbEntity
  8
0
100
AcDbBlockBegin
  2
PART_TOP_47
 70
     0
 10
0.0
 20
0.0
 30
0.0
  3
PART_TOP_47
  1

  0
INSERT
  5
1B5
330
1B4
100
AcDbEntity
  8
0
  6
CONTINUOUS
 62
     7
100
AcDbBlockReference
  2

 10
0.0
 20
0.0
 30
0.0
  0
INSERT
  5
1B6
330
1B4
100
AcDbEntity
  8
0
  6
CONTINUOUS
 62
     7
100
AcDbBlockReference
  2

 10
0.0
 20
0.0
 30
0.0
  0
ENDBLK
  5
1B8
330
1B4
100
AcDbEntity
  8
0
100
AcDbBlockEnd
  0
BLOCK
  5
1BC
330
1B9
100
AcDbEntity
  8
0
100
AcDbBlockBegin
  2
PART_TOP_48
 70
     0
 10
0.0
 20
0.0
 30
0.0
  3
PART_TOP_48
  1

  0
INSERT
  5
1BA
330
1B9
100
AcDbEntity
  8
0
  6
CONTINUOUS
 62
     7
100
AcDbBlockReference
  2

 10
0.0
 20
0.0
 30
0.0
  0
INSERT
  5
1BB
330
1B9
100
AcDbEntity
  8
0
  6
CONTINUOUS
 62
     7
100
AcDbBlockReference
  2

 10
0.0
 20
0.0
 30
0.0
  0
ENDBLK
  5
1BD
330
1B9
100
AcDbEntity
  8
0
100
AcDbBlockEnd
  0
BLOCK
  5
1C1
330
1BE
100
AcDbEntity
  8
0
100
AcDbBlockBegin
  2
PART_TOP_49
 70
     0
 10
0.0
 20
0.0
 30
0.0
  3
PART_TOP_49
  1

  0
INSERT
  5
1BF
330
1BE
100
AcDbEntity
  8
0
  6
CONTINUOUS
 62
     7
100
AcDbBlockReference
  2

 10
0.0
 20
0.0
 30
0.0
  0
INSERT
  5
1C0
330
1BE
100
AcDbEntity
  8
0
  6
CONTINUOUS
 62
     7
100
AcDbBlockReference
  2

 10
0.0
 20
0.0
 30
0.0
  0
ENDBLK
  5
1C2
330
1BE
100
AcDbEntity
  8
0
100
AcDbBlockEnd
  0
BLOCK
  5
1C6
330
1C3
100
AcDbEntity
  8
0
100
AcDbBlockBegin
  2
PART_TOP_50
 70
     0
 10
0.0
 20
0.0
 30
0.0
  3
PART_TOP_50
  1

  0
INSERT
  5
1C4
330
1C3
100
AcDbEntity
  8
0
  6
CONTINUOUS
 62
     7
100
AcDbBlockReference
  2

 10
0.0
 20
0.0
 30
0.0
  0
INSERT
  5
1C5
330
1C3
100
AcDbEntity
  8
0
  6
CONTINUOUS
 62
     7
100
AcDbBlockReference
  2

 10
0.0
 20
0.0
 30
0.0
  0
ENDBLK
  5
1C7
330
1C3
100
AcDbEntity
  8
0
100
AcDbBlockEnd
  0
BLOCK
  5
1CB
330
1C8
100
AcDbEntity
  8
0
100
AcDbBlockBegin
  2
PART_TOP_51
 70
     0
 10
0.0
 20
0.0
 30
0.0
  3
PART_TOP_51
  1

  0
INSERT
  5
1C9
330
1C8
100
AcDbEntity
  8
0
  6
CONTINUOUS
 62
     7
100
AcDbBlockReference
  2

 10
0.0
 20
0.0
 30
0.0
  0
INSERT
  5
1CA
330
1C8
100
AcDbEntity
  8
0
  6
CONTINUOUS
 62
     7
100
AcDbBlockReference
  2

 10
0.0
 20
0.0
 30
0.0
  0
ENDBLK
  5
1CC
330
1C8
100
AcDbEntity
  8
0
100
AcDbBlockEnd
  0
BLOCK
  5
1D0
330
1CD
100
AcDbEntity
  8
0
100
AcDbBlockBegin
  2
PART_TOP_52
 70
     0
 10
0.0
 20
0.0
 30
0.0
  3
PART_TOP_52
  1

  0
INSERT
  5
1CE
330
1CD
100
AcDbEntity
  8
0
  6
CONTINUOUS
 62
     7
100
AcDbBlockReference
  2

 10
0.0
 20
0.0
 30
0.0
  0
INSERT
  5
1CF
330
1CD
100
AcDbEntity
  8
0
  6
CONTINUOUS
 62
     7
100
AcDbBlockReference
  2

 10
0.0
 20
0.0
 30
0.0
  0
ENDBLK
  5
1D1
330
1CD
100
AcDbEntity
  8
0
100
AcDbBlockEnd
  0
BLOCK
  5
1D5
330
1D2
100
AcDbEntity
  8
0
100
AcDbBlockBegin
  2
PART_TOP_53
 70
     0
 10
0.0
 20
0.0
 30
0.0
  3
PART_TOP_53
  1

  0
INSERT
  5
1D3
330
1D2
100
AcDbEntity
  8
0
  6
CONTINUOUS
 62
     7
100
AcDbBlockReference
  2

 10
0.0
 20
0.0
 30
0.0
  0
INSERT
  5
1D4
330
1D2
100
AcDbEntity
  8
0
  6
CONTINUOUS
 62
     7
100
AcDbBlockReference
  2

 10
0.0
 20
0.0
 30
0.0
  0
ENDBLK
  5
1D6
330
1D2
100
AcDbEntity
  8
0
100
AcDbBlockEnd
  0
BLOCK
  5
1DA
330
1D7
100
AcDbEntity
  8
0
100
AcDbBlockBegin
  2
PART_TOP_54
 70
     0
 10
0.0
 20
0.0
 30
0.0
  3
PART_TOP_54
  1

  0
INSERT
  5
1D8
330
1D7
100
AcDbEntity
  8
0
  6
CONTINUOUS
 62
     7
100
AcDbBlockReference
  2

 10
0.0
 20
0.0
 30
0.0
  0
INSERT
  5
1D9
330
1D7
100
AcDbEntity
  8
0
  6
CONTINUOUS
 62
     7
100
AcDbBlockReference
  2

 10
0.0
 20
0.0
 30
0.0
  0
ENDBLK
  5
1DB
330
1D7
100
AcDbEntity
  8
0
100
AcDbBlockEnd
  0
BLOCK
  5
1DF
330
1DC
100
AcDbEntity
  8
0
100
AcDbBlockBegin
  2
PART_TOP_55
 70
     0
 10
0.0
 20
0.0
 30
0.0
  3
PART_TOP_55
  1

  0
INSERT
  5
1DD
330
1DC
100
AcDbEntity
  8
0
  6
CONTINUOUS
 62
     7
100
AcDbBlockReference
  2

 10
0.0
 20
0.0
 30
0.0
  0
INSERT
  5
1DE
330
1DC
100
AcDbEntity
  8
0
  6
CONTINUOUS
 62
     7
100
AcDbBlockReference
  2

 10
0.0
 20
0.0
 30
0.0
  0
ENDBLK
  5
1E0
330
1DC
100
AcDbEntity
  8
0
100
AcDbBlockEnd
  0
BLOCK
  5
1E4
330
1E1
100
AcDbEntity
  8
0
100
AcDbBlockBegin
  2
PART_TOP_56
 70
     0
 10
0.0
 20
0.0
 30
0.0
  3
PART_TOP_56
  1

  0
INSERT
  5
1E2
330
1E1
100
AcDbEntity
  8
0
  6
CONTINUOUS
 62
     7
100
AcDbBlockReference
  2

 10
0.0
 20
0.0
 30
0.0
  0
INSERT
  5
1E3
330
1E1
100
AcDbEntity
  8
0
  6
CONTINUOUS
 62
     7
100
AcDbBlockReference
  2

 10
0.0
 20
0.0
 30
0.0
  0
ENDBLK
  5
1E5
330
1E1
100
AcDbEntity
  8
0
100
AcDbBlockEnd
  0
BLOCK
  5
1EA
330
1E6
100
AcDbEntity
  8
0
100
AcDbBlockBegin
  2
SYM_TOP_13
 70
     0
 10
0.0
 20
0.0
 30
0.0
  3
SYM_TOP_13
  1

  0
INSERT
  5
1E7
330
1E6
100
AcDbEntity
  8
0
  6
CONTINUOUS
 62
     7
100
AcDbBlockReference
  2

 10
0.0
 20
0.0
 30
0.0
  0
INSERT
  5
1E8
330
1E6
100
AcDbEntity
  8
0
  6
CONTINUOUS
 62
     7
100
AcDbBlockReference
  2

 10
0.0
 20
0.0
 30
0.0
  0
INSERT
  5
1E9
330
1E6
100
AcDbEntity
  8
0
  6
CONTINUOUS
 62
     7
100
AcDbBlockReference
  2

 10
64.516000065806
 20
0.0
 30
0.0
  0
ENDBLK
  5
1EB
330
1E6
100
AcDbEntity
  8
0
100
AcDbBlockEnd
  0
BLOCK
  5
1ED
330
1EC
100
AcDbEntity
  8
0
100
AcDbBlockBegin
  2
PKG_0
 70
     0
 10
0.0
 20
0.0
 30
0.0
  3
PKG_0
  1

  0
ENDBLK
  5
1EE
330
1EC
100
AcDbEntity
  8
0
100
AcDbBlockEnd
  0
BLOCK
  5
1F2
330
1EF
100
AcDbEntity
  8
0
100
AcDbBlockBegin
  2
SYM_TOP_14
 70
     0
 10
0.0
 20
0.0
 30
0.0
  3
SYM_TOP_14
  1

  0
INSERT
  5
1F0
330
1EF
100
AcDbEntity
  8
0
  6
CONTINUOUS
 62
     7
100
AcDbBlockReference
  2

 10
0.0
 20
0.0
 30
0.0
  0
INSERT
  5
1F1
330
1EF
100
AcDbEntity
  8
0
  6
CONTINUOUS
 62
     7
100
AcDbBlockReference
  2

 10
0.0
 20
0.0
 30
0.0
  0
ENDBLK
  5
1F3
330
1EF
100
AcDbEntity
  8
0
100
AcDbBlockEnd
  0
BLOCK
  5
1F5
330
1F4
100
AcDbEntity
  8
0
100
AcDbBlockBegin
  2
PKG_1
 70
     0
 10
0.0
 20
0.0
 30
0.0
  3
PKG_1
  1

  0
ENDBLK
  5
1F6
330
1F4
100
AcDbEntity
  8
0
100
AcDbBlockEnd
  0
BLOCK
  5
1FB
330
1F7
100
AcDbEntity
  8
0
100
AcDbBlockBegin
  2
SYM_TOP_15
 70
     0
 10
0.0
 20
0.0
 30
0.0
  3
SYM_TOP_15
  1

  0
INSERT
  5
1F8
330
1F7
100
AcDbEntity
  8
0
  6
CONTINUOUS
 62
     7
100
AcDbBlockReference
  2

 10
0.0
 20
0.0
 30
0.0
  0
INSERT
  5
1F9
330
1F7
100
AcDbEntity
  8
0
  6
CONTINUOUS
 62
     7
100
AcDbBlockReference
  2

 10
-20.320000020726
 20
0.0
 30
0.0
  0
INSERT
  5
1FA
330
1F7
100
AcDbEntity
  8
0
  6
CONTINUOUS
 62
     7
100
AcDbBlockReference
  2

 10
20.320000020726
 20
0.0
 30
0.0
  0
ENDBLK
  5
1FC
330
1F7
100
AcDbEntity
  8
0
100
AcDbBlockEnd
  0
BLOCK
  5
1FE
330
1FD
100
AcDbEntity
  8
0
100
AcDbBlockBegin
  2
PKG_2
 70
     0
 10
0.0
 20
0.0
 30
0.0
  3
PKG_2
  1

  0
ENDBLK
  5
1FF
330
1FD
100
AcDbEntity
  8
0
100
AcDbBlockEnd
  0
BLOCK
  5
204
330
200
100
AcDbEntity
  8
0
100
AcDbBlockBegin
  2
SYM_TOP_16
 70
     0
 10
0.0
 20
0.0
 30
0.0
  3
SYM_TOP_16
  1

  0
INSERT
  5
201
330
200
100
AcDbEntity
  8
0
  6
CONTINUOUS
 62
     7
100
AcDbBlockReference
  2

 10
0.0
 20
0.0
 30
0.0
  0
INSERT
  5
202
330
200
100
AcDbEntity
  8
0
  6
CONTINUOUS
 62
     7
100
AcDbBlockReference
  2

 10
-44.450000045339
 20
0.0
 30
0.0
  0
INSERT
  5
203
330
200
100
AcDbEntity
  8
0
  6
CONTINUOUS
 62
     7
100
AcDbBlockReference
  2

 10
44.450000045339
 20
0.0
 30
0.0
  0
ENDBLK
  5
205
330
200
100
AcDbEntity
  8
0
100
AcDbBlockEnd
  0
BLOCK
  5
207
330
206
100
AcDbEntity
  8
0
100
AcDbBlockBegin
  2
PKG_3
 70
     0
 10
0.0
 20
0.0
 30
0.0
  3
PKG_3
  1

  0
ENDBLK
  5
208
330
206
100
AcDbEntity
  8
0
100
AcDbBlockEnd
  0
BLOCK
  5
20D
330
209
100
AcDbEntity
  8
0
100
AcDbBlockBegin
  2
SYM_TOP_18
 70
     0
 10
0.0
 20
0.0
 30
0.0
  3
SYM_TOP_18
  1

  0
INSERT
  5
20A
330
209
100
AcDbEntity
  8
0
  6
CONTINUOUS
 62
     7
100
AcDbBlockReference
  2

 10
0.0
 20
0.0
 30
0.0
  0
INSERT
  5
20B
330
209
100
AcDbEntity
  8
0
  6
CONTINUOUS
 62
     7
100
AcDbBlockReference
  2

 10
0.0
 20
-78.740000080315
 30
0.0
  0
INSERT
  5
20C
330
209
100
AcDbEntity
  8
0
  6
CONTINUOUS
 62
     7
100
AcDbBlockReference
  2

 10
0.0
 20
78.740000080315
 30
0.0
  0
ENDBLK
  5
20E
330
209
100
AcDbEntity
  8
0
100
AcDbBlockEnd
  0
BLOCK
  5
210
330
20F
100
AcDbEntity
  8
0
100
AcDbBlockBegin
  2
PKG_4
 70
     0
 10
0.0
 20
0.0
 30
0.0
  3
PKG_4
  1

  0
ENDBLK
  5
211
330
20F
100
AcDbEntity
  8
0
100
AcDbBlockEnd
  0
BLOCK
  5
216
330
212
100
AcDbEntity
  8
0
100
AcDbBlockBegin
  2
SYM_TOP_19
 70
     0
 10
0.0
 20
0.0
 30
0.0
  3
SYM_TOP_19
  1

  0
INSERT
  5
213
330
212
100
AcDbEntity
  8
0
  6
CONTINUOUS
 62
     7
100
AcDbBlockReference
  2

 10
0.0
 20
0.0
 30
0.0
  0
INSERT
  5
214
330
212
100
AcDbEntity
  8
0
  6
CONTINUOUS
 62
     7
100
AcDbBlockReference
  2

 10
-20.320000020726
 20
0.0
 30
0.0
  0
INSERT
  5
215
330
212
100
AcDbEntity
  8
0
  6
CONTINUOUS
 62
     7
100
AcDbBlockReference
  2

 10
20.320000020726
 20
0.0
 30
0.0
  0
ENDBLK
  5
217
330
212
100
AcDbEntity
  8
0
100
AcDbBlockEnd
  0
BLOCK
  5
219
330
218
100
AcDbEntity
  8
0
100
AcDbBlockBegin
  2
PKG_5
 70
     0
 10
0.0
 20
0.0
 30
0.0
  3
PKG_5
  1

  0
ENDBLK
  5
21A
330
218
100
AcDbEntity
  8
0
100
AcDbBlockEnd
  0
BLOCK
  5
21C
330
21B
100
AcDbEntity
  8
0
100
AcDbBlockBegin
  2
PKG_6
 70
     0
 10
0.0
 20
0.0
 30
0.0
  3
PKG_6
  1

  0
ENDBLK
  5
21D
330
21B
100
AcDbEntity
  8
0
100
AcDbBlockEnd
  0
BLOCK
  5
224
330
21E
100
AcDbEntity
  8
0
100
AcDbBlockBegin
  2
SYM_TOP_20
 70
     0
 10
0.0
 20
0.0
 30
0.0
  3
SYM_TOP_20
  1

  0
INSERT
  5
21F
330
21E
100
AcDbEntity
  8
0
  6
CONTINUOUS
 62
     7
100
AcDbBlockReference
  2

 10
0.0
 20
0.0
 30
0.0
  0
INSERT
  5
220
330
21E
100
AcDbEntity
  8
0
  6
CONTINUOUS
 62
     7
100
AcDbBlockReference
  2

 10
-127.00000012954
 20
-203.200000207264
 30
0.0
  0
INSERT
  5
221
330
21E
100
AcDbEntity
  8
0
  6
CONTINUOUS
 62
     7
100
AcDbBlockReference
  2

 10
127.00000012954
 20
-203.200000207264
 30
0.0
  0
INSERT
  5
222
330
21E
100
AcDbEntity
  8
0
  6
CONTINUOUS
 62
     7
100
AcDbBlockReference
  2

 10
0.0
 20
114.300000116586
 30
0.0
  0
INSERT
  5
223
330
21E
100
AcDbEntity
  8
0
  6
CONTINUOUS
 62
     7
100
AcDbBlockReference
  2

 10
0.0
 20
0.0
 30
0.0
  0
ENDBLK
  5
225
330
21E
100
AcDbEntity
  8
0
100
AcDbBlockEnd
  0
BLOCK
  5
227
330
226
100
AcDbEntity
  8
0
100
AcDbBlockBegin
  2
PKG_8
 70
     0
 10
0.0
 20
0.0
 30
0.0
  3
PKG_8
  1

  0
ENDBLK
  5
228
330
226
100
AcDbEntity
  8
0
100
AcDbBlockEnd
  0
BLOCK
  5
233
330
229
100
AcDbEntity
  8
0
100
AcDbBlockBegin
  2
SYM_TOP_21
 70
     0
 10
0.0
 20
0.0
 30
0.0
  3
SYM_TOP_21
  1

  0
INSERT
  5
22A
330
229
100
AcDbEntity
  8
0
  6
CONTINUOUS
 62
     7
100
AcDbBlockReference
  2

 10
0.0
 20
0.0
 30
0.0
  0
INSERT
  5
22B
330
229
100
AcDbEntity
  8
0
  6
CONTINUOUS
 62
     7
100
AcDbBlockReference
  2

 10
-48.387000049355
 20
-76.200000077724
 30
0.0
  0
INSERT
  5
22C
330
229
100
AcDbEntity
  8
0
  6
CONTINUOUS
 62
     7
100
AcDbBlockReference
  2

 10
-16.129000016452
 20
-76.200000077724
 30
0.0
  0
INSERT
  5
22D
330
229
100
AcDbEntity
  8
0
  6
CONTINUOUS
 62
     7
100
AcDbBlockReference
  2

 10
16.129000016452
 20
-76.200000077724
 30
0.0
  0
INSERT
  5
22E
330
229
100
AcDbEntity
  8
0
  6
CONTINUOUS
 62
     7
100
AcDbBlockReference
  2

 10
48.387000049355
 20
-76.200000077724
 30
0.0
  0
INSERT
  5
22F
330
229
100
AcDbEntity
  8
0
  6
CONTINUOUS
 62
     7
100
AcDbBlockReference
  2

 10
48.387000049355
 20
76.200000077724
 30
0.0
  0
INSERT
  5
230
330
229
100
AcDbEntity
  8
0
  6
CONTINUOUS
 62
     7
100
AcDbBlockReference
  2

 10
16.129000016452
 20
76.200000077724
 30
0.0
  0
INSERT
  5
231
330
229
100
AcDbEntity
  8
0
  6
CONTINUOUS
 62
     7
100
AcDbBlockReference
  2

 10
-16.129000016452
 20
76.200000077724
 30
0.0
  0
INSERT
  5
232
330
229
100
AcDbEntity
  8
0
  6
CONTINUOUS
 62
     7
100
AcDbBlockReference
  2

 10
-48.387000049355
 20
76.200000077724
 30
0.0
  0
ENDBLK
  5
234
330
229
100
AcDbEntity
  8
0
100
AcDbBlockEnd
  0
BLOCK
  5
236
330
235
100
AcDbEntity
  8
0
100
AcDbBlockBegin
  2
PKG_9
 70
     0
 10
0.0
 20
0.0
 30
0.0
  3
PKG_9
  1

  0
ENDBLK
  5
237
330
235
100
AcDbEntity
  8
0
100
AcDbBlockEnd
  0
BLOCK
  5
242
330
238
100
AcDbEntity
  8
0
100
AcDbBlockBegin
  2
SYM_TOP_22
 70
     0
 10
0.0
 20
0.0
 30
0.0
  3
SYM_TOP_22
  1

  0
INSERT
  5
239
330
238
100
AcDbEntity
  8
0
  6
CONTINUOUS
 62
     7
100
AcDbBlockReference
  2

 10
0.0
 20
0.0
 30
0.0
  0
INSERT
  5
23A
330
238
100
AcDbEntity
  8
0
  6
CONTINUOUS
 62
     7
100
AcDbBlockReference
  2

 10
-63.50000006477
 20
34.290000034976
 30
0.0
  0
INSERT
  5
23B
330
238
100
AcDbEntity
  8
0
  6
CONTINUOUS
 62
     7
100
AcDbBlockReference
  2

 10
-38.100000038862
 20
34.290000034976
 30
0.0
  0
INSERT
  5
23C
330
238
100
AcDbEntity
  8
0
  6
CONTINUOUS
 62
     7
100
AcDbBlockReference
  2

 10
-12.700000012954
 20
34.290000034976
 30
0.0
  0
INSERT
  5
23D
330
238
100
AcDbEntity
  8
0
  6
CONTINUOUS
 62
     7
100
AcDbBlockReference
  2

 10
12.700000012954
 20
34.290000034976
 30
0.0
  0
INSERT
  5
23E
330
238
100
AcDbEntity
  8
0
  6
CONTINUOUS
 62
     7
100
AcDbBlockReference
  2

 10
38.100000038862
 20
34.290000034976
 30
0.0
  0
INSERT
  5
23F
330
238
100
AcDbEntity
  8
0
  6
CONTINUOUS
 62
     7
100
AcDbBlockReference
  2

 10
63.50000006477
 20
34.290000034976
 30
0.0
  0
INSERT
  5
240
330
238
100
AcDbEntity
  8
0
  6
CONTINUOUS
 62
     7
100
AcDbBlockReference
  2

 10
143.51000014638
 20
-25.400000025908
 30
0.0
  0
INSERT
  5
241
330
238
100
AcDbEntity
  8
0
  6
CONTINUOUS
 62
     7
100
AcDbBlockReference
  2

 10
-143.51000014638
 20
-25.400000025908
 30
0.0
  0
ENDBLK
  5
243
330
238
100
AcDbEntity
  8
0
100
AcDbBlockEnd
  0
BLOCK
  5
245
330
244
100
AcDbEntity
  8
0
100
AcDbBlockBegin
  2
PKG_10
 70
     0
 10
0.0
 20
0.0
 30
0.0
  3
PKG_10
  1

  0
ENDBLK
  5
246
330
244
100
AcDbEntity
  8
0
100
AcDbBlockEnd
  0
BLOCK
  5
24B
330
247
100
AcDbEntity
  8
0
100
AcDbBlockBegin
  2
SYM_TOP_23
 70
     0
 10
0.0
 20
0.0
 30
0.0
  3
SYM_TOP_23
  1

  0
INSERT
  5
248
330
247
100
AcDbEntity
  8
0
  6
CONTINUOUS
 62
     7
100
AcDbBlockReference
  2

 10
0.0
 20
0.0
 30
0.0
  0
INSERT
  5
249
330
247
100
AcDbEntity
  8
0
  6
CONTINUOUS
 62
     7
100
AcDbBlockReference
  2

 10
-63.503048064773
 20
0.0
 30
0.0
  0
INSERT
  5
24A
330
247
100
AcDbEntity
  8
0
  6
CONTINUOUS
 62
     7
100
AcDbBlockReference
  2

 10
63.503048064773
 20
0.0
 30
0.0
  0
ENDBLK
  5
24C
330
247
100
AcDbEntity
  8
0
100
AcDbBlockEnd
  0
BLOCK
  5
24E
330
24D
100
AcDbEntity
  8
0
100
AcDbBlockBegin
  2
PKG_11
 70
     0
 10
0.0
 20
0.0
 30
0.0
  3
PKG_11
  1

  0
ENDBLK
  5
24F
330
24D
100
AcDbEntity
  8
0
100
AcDbBlockEnd
  0
BLOCK
  5
254
330
250
100
AcDbEntity
  8
0
100
AcDbBlockBegin
  2
SYM_TOP_24
 70
     0
 10
0.0
 20
0.0
 30
0.0
  3
SYM_TOP_24
  1

  0
INSERT
  5
251
330
250
100
AcDbEntity
  8
0
  6
CONTINUOUS
 62
     7
100
AcDbBlockReference
  2

 10
0.0
 20
0.0
 30
0.0
  0
INSERT
  5
252
330
250
100
AcDbEntity
  8
0
  6
CONTINUOUS
 62
     7
100
AcDbBlockReference
  2

 10
-66.040000067361
 20
0.0
 30
0.0
  0
INSERT
  5
253
330
250
100
AcDbEntity
  8
0
  6
CONTINUOUS
 62
     7
100
AcDbBlockReference
  2

 10
66.040000067361
 20
0.0
 30
0.0
  0
ENDBLK
  5
255
330
250
100
AcDbEntity
  8
0
100
AcDbBlockEnd
  0
BLOCK
  5
257
330
256
100
AcDbEntity
  8
0
100
AcDbBlockBegin
  2
PKG_12
 70
     0
 10
0.0
 20
0.0
 30
0.0
  3
PKG_12
  1

  0
ENDBLK
  5
258
330
256
100
AcDbEntity
  8
0
100
AcDbBlockEnd
  0
BLOCK
  5
25C
330
259
100
AcDbEntity
  8
0
100
AcDbBlockBegin
  2
SYM_TOP_26
 70
     0
 10
0.0
 20
0.0
 30
0.0
  3
SYM_TOP_26
  1

  0
INSERT
  5
25A
330
259
100
AcDbEntity
  8
0
  6
CONTINUOUS
 62
     7
100
AcDbBlockReference
  2

 10
0.0
 20
0.0
 30
0.0
  0
INSERT
  5
25B
330
259
100
AcDbEntity
  8
0
  6
CONTINUOUS
 62
     7
100
AcDbBlockReference
  2

 10
0.0
 20
0.0
 30
0.0
  0
ENDBLK
  5
25D
330
259
100
AcDbEntity
  8
0
100
AcDbBlockEnd
  0
BLOCK
  5
25F
330
25E
100
AcDbEntity
  8
0
100
AcDbBlockBegin
  2
PKG_13
 70
     0
 10
0.0
 20
0.0
 30
0.0
  3
PKG_13
  1

  0
ENDBLK
  5
260
330
25E
100
AcDbEntity
  8
0
100
AcDbBlockEnd
  0
BLOCK
  5
266
330
261
100
AcDbEntity
  8
0
100
AcDbBlockBegin
  2
SYM_TOP_27
 70
     0
 10
0.0
 20
0.0
 30
0.0
  3
SYM_TOP_27
  1

  0
INSERT
  5
262
330
261
100
AcDbEntity
  8
0
  6
CONTINUOUS
 62
     7
100
AcDbBlockReference
  2

 10
0.0
 20
0.0
 30
0.0
  0
INSERT
  5
263
330
261
100
AcDbEntity
  8
0
  6
CONTINUOUS
 62
     7
100
AcDbBlockReference
  2

 10
-32.258000032903
 20
0.0
 30
0.0
  0
INSERT
  5
264
330
261
100
AcDbEntity
  8
0
  6
CONTINUOUS
 62
     7
100
AcDbBlockReference
  2

 10
0.0
 20
0.0
 30
0.0
  0
INSERT
  5
265
330
261
100
AcDbEntity
  8
0
  6
CONTINUOUS
 62
     7
100
AcDbBlockReference
  2

 10
32.258000032903
 20
0.0
 30
0.0
  0
ENDBLK
  5
267
330
261
100
AcDbEntity
  8
0
100
AcDbBlockEnd
  0
BLOCK
  5
269
330
268
100
AcDbEntity
  8
0
100
AcDbBlockBegin
  2
PKG_14
 70
     0
 10
0.0
 20
0.0
 30
0.0
  3
PKG_14
  1

  0
ENDBLK
  5
26A
330
268
100
AcDbEntity
  8
0
100
AcDbBlockEnd
  0
BLOCK
  5
26F
330
26B
100
AcDbEntity
  8
0
100
AcDbBlockBegin
  2
SYM_TOP_28
 70
     0
 10
0.0
 20
0.0
 30
0.0
  3
SYM_TOP_28
  1

  0
INSERT
  5
26C
330
26B
100
AcDbEntity
  8
0
  6
CONTINUOUS
 62
     7
100
AcDbBlockReference
  2

 10
0.0
 20
0.0
 30
0.0
  0
INSERT
  5
26D
330
26B
100
AcDbEntity
  8
0
  6
CONTINUOUS
 62
     7
100
AcDbBlockReference
  2

 10
-32.258000032903
 20
0.0
 30
0.0
  0
INSERT
  5
26E
330
26B
100
AcDbEntity
  8
0
  6
CONTINUOUS
 62
     7
100
AcDbBlockReference
  2

 10
32.258000032903
 20
0.0
 30
0.0
  0
ENDBLK
  5
270
330
26B
100
AcDbEntity
  8
0
100
AcDbBlockEnd
  0
BLOCK
  5
272
330
271
100
AcDbEntity
  8
0
100
AcDbBlockBegin
  2
PKG_15
 70
     0
 10
0.0
 20
0.0
 30
0.0
  3
PKG_15
  1

  0
ENDBLK
  5
273
330
271
100
AcDbEntity
  8
0
100
AcDbBlockEnd
  0
BLOCK
  5
27B
330
274
100
AcDbEntity
  8
0
100
AcDbBlockBegin
  2
SYM_TOP_29
 70
     0
 10
0.0
 20
0.0
 30
0.0
  3
SYM_TOP_29
  1

  0
INSERT
  5
275
330
274
100
AcDbEntity
  8
0
  6
CONTINUOUS
 62
     7
100
AcDbBlockReference
  2

 10
0.0
 20
0.0
 30
0.0
  0
INSERT
  5
276
330
274
100
AcDbEntity
  8
0
  6
CONTINUOUS
 62
     7
100
AcDbBlockReference
  2

 10
-24.130000024613
 20
-33.02000003368
 30
0.0
  0
INSERT
  5
277
330
274
100
AcDbEntity
  8
0
  6
CONTINUOUS
 62
     7
100
AcDbBlockReference
  2

 10
0.0
 20
-33.02000003368
 30
0.0
  0
INSERT
  5
278
330
274
100
AcDbEntity
  8
0
  6
CONTINUOUS
 62
     7
100
AcDbBlockReference
  2

 10
24.130000024613
 20
-33.02000003368
 30
0.0
  0
INSERT
  5
279
330
274
100
AcDbEntity
  8
0
  6
CONTINUOUS
 62
     7
100
AcDbBlockReference
  2

 10
24.130000024613
 20
33.02000003368
 30
0.0
  0
INSERT
  5
27A
330
274
100
AcDbEntity
  8
0
  6
CONTINUOUS
 62
     7
100
AcDbBlockReference
  2

 10
-24.130000024613
 20
33.02000003368
 30
0.0
  0
ENDBLK
  5
27C
330
274
100
AcDbEntity
  8
0
100
AcDbBlockEnd
  0
BLOCK
  5
27E
330
27D
100
AcDbEntity
  8
0
100
AcDbBlockBegin
  2
PKG_16
 70
     0
 10
0.0
 20
0.0
 30
0.0
  3
PKG_16
  1

  0
ENDBLK
  5
27F
330
27D
100
AcDbEntity
  8
0
100
AcDbBlockEnd
  0
BLOCK
  5
281
330
280
100
AcDbEntity
  8
0
100
AcDbBlockBegin
  2
PKG_17
 70
     0
 10
0.0
 20
0.0
 30
0.0
  3
PKG_17
  1

  0
ENDBLK
  5
282
330
280
100
AcDbEntity
  8
0
100
AcDbBlockEnd
  0
BLOCK
  5
284
330
283
100
AcDbEntity
  8
0
100
AcDbBlockBegin
  2
PKG_7
 70
     0
 10
0.0
 20
0.0
 30
0.0
  3
PKG_7
  1

  0
ENDBLK
  5
285
330
283
100
AcDbEntity
  8
0
100
AcDbBlockEnd
  0
BLOCK
  5
287
330
286
100
AcDbEntity
  8
0
100
AcDbBlockBegin
  2
PKG_18
 70
     0
 10
0.0
 20
0.0
 30
0.0
  3
PKG_18
  1

  0
ENDBLK
  5
288
330
286
100
AcDbEntity
  8
0
100
AcDbBlockEnd
  0
BLOCK
  5
28D
330
289
100
AcDbEntity
  8
0
100
AcDbBlockBegin
  2
SYM_TOP_30
 70
     0
 10
0.0
 20
0.0
 30
0.0
  3
SYM_TOP_30
  1

  0
INSERT
  5
28A
330
289
100
AcDbEntity
  8
0
  6
CONTINUOUS
 62
     7
100
AcDbBlockReference
  2

 10
0.0
 20
0.0
 30
0.0
  0
INSERT
  5
28B
330
289
100
AcDbEntity
  8
0
  6
CONTINUOUS
 62
     7
100
AcDbBlockReference
  2

 10
-88.900000090678
 20
0.0
 30
0.0
  0
INSERT
  5
28C
330
289
100
AcDbEntity
  8
0
  6
CONTINUOUS
 62
     7
100
AcDbBlockReference
  2

 10
88.900000090678
 20
0.0
 30
0.0
  0
ENDBLK
  5
28E
330
289
100
AcDbEntity
  8
0
100
AcDbBlockEnd
  0
BLOCK
  5
290
330
28F
100
AcDbEntity
  8
0
100
AcDbBlockBegin
  2
PKG_19
 70
     0
 10
0.0
 20
0.0
 30
0.0
  3
PKG_19
  1

  0
ENDBLK
  5
291
330
28F
100
AcDbEntity
  8
0
100
AcDbBlockEnd
  0
BLOCK
  5
297
330
292
100
AcDbEntity
  8
0
100
AcDbBlockBegin
  2
SYM_TOP_31
 70
     0
 10
0.0
 20
0.0
 30
0.0
  3
SYM_TOP_31
  1

  0
INSERT
  5
293
330
292
100
AcDbEntity
  8
0
  6
CONTINUOUS
 62
     7
100
AcDbBlockReference
  2

 10
0.0
 20
0.0
 30
0.0
  0
INSERT
  5
294
330
292
100
AcDbEntity
  8
0
  6
CONTINUOUS
 62
     7
100
AcDbBlockReference
  2

 10
0.0
 20
0.0
 30
0.0
  0
INSERT
  5
295
330
292
100
AcDbEntity
  8
0
  6
CONTINUOUS
 62
     7
100
AcDbBlockReference
  2

 10
64.516000065806
 20
0.0
 30
0.0
  0
INSERT
  5
296
330
292
100
AcDbEntity
  8
0
  6
CONTINUOUS
 62
     7
100
AcDbBlockReference
  2

 10
129.032000131613
 20
0.0
 30
0.0
  0
ENDBLK
  5
298
330
292
100
AcDbEntity
  8
0
100
AcDbBlockEnd
  0
BLOCK
  5
29A
330
299
100
AcDbEntity
  8
0
100
AcDbBlockBegin
  2
PKG_20
 70
     0
 10
0.0
 20
0.0
 30
0.0
  3
PKG_20
  1

  0
ENDBLK
  5
29B
330
299
100
AcDbEntity
  8
0
100
AcDbBlockEnd
  0
BLOCK
  5
2A1
330
29C
100
AcDbEntity
  8
0
100
AcDbBlockBegin
  2
SYM_TOP_32
 70
     0
 10
0.0
 20
0.0
 30
0.0
  3
SYM_TOP_32
  1

  0
INSERT
  5
29D
330
29C
100
AcDbEntity
  8
0
  6
CONTINUOUS
 62
     7
100
AcDbBlockReference
  2

 10
0.0
 20
0.0
 30
0.0
  0
INSERT
  5
29E
330
29C
100
AcDbEntity
  8
0
  6
CONTINUOUS
 62
     7
100
AcDbBlockReference
  2

 10
-50.800000051816
 20
0.0
 30
0.0
  0
INSERT
  5
29F
330
29C
100
AcDbEntity
  8
0
  6
CONTINUOUS
 62
     7
100
AcDbBlockReference
  2

 10
0.0
 20
0.0
 30
0.0
  0
INSERT
  5
2A0
330
29C
100
AcDbEntity
  8
0
  6
CONTINUOUS
 62
     7
100
AcDbBlockReference
  2

 10
50.800000051816
 20
0.0
 30
0.0
  0
ENDBLK
  5
2A2
330
29C
100
AcDbEntity
  8
0
100
AcDbBlockEnd
  0
BLOCK
  5
2A4
330
2A3
100
AcDbEntity
  8
0
100
AcDbBlockBegin
  2
PKG_21
 70
     0
 10
0.0
 20
0.0
 30
0.0
  3
PKG_21
  1

  0
ENDBLK
  5
2A5
330
2A3
100
AcDbEntity
  8
0
100
AcDbBlockEnd
  0
BLOCK
  5
2A7
330
2A6
100
AcDbEntity
  8
0
100
AcDbBlockBegin
  2
PKG_22
 70
     0
 10
0.0
 20
0.0
 30
0.0
  3
PKG_22
  1

  0
ENDBLK
  5
2A8
330
2A6
100
AcDbEntity
  8
0
100
AcDbBlockEnd
  0
BLOCK
  5
2AD
330
2A9
100
AcDbEntity
  8
0
100
AcDbBlockBegin
  2
SYM_TOP_33
 70
     0
 10
0.0
 20
0.0
 30
0.0
  3
SYM_TOP_33
  1

  0
INSERT
  5
2AA
330
2A9
100
AcDbEntity
  8
0
  6
CONTINUOUS
 62
     7
100
AcDbBlockReference
  2

 10
0.0
 20
0.0
 30
0.0
  0
INSERT
  5
2AB
330
2A9
100
AcDbEntity
  8
0
  6
CONTINUOUS
 62
     7
100
AcDbBlockReference
  2

 10
-32.258000032903
 20
0.0
 30
0.0
  0
INSERT
  5
2AC
330
2A9
100
AcDbEntity
  8
0
  6
CONTINUOUS
 62
     7
100
AcDbBlockReference
  2

 10
32.258000032903
 20
0.0
 30
0.0
  0
ENDBLK
  5
2AE
330
2A9
100
AcDbEntity
  8
0
100
AcDbBlockEnd
  0
BLOCK
  5
2B0
330
2AF
100
AcDbEntity
  8
0
100
AcDbBlockBegin
  2
PKG_23
 70
     0
 10
0.0
 20
0.0
 30
0.0
  3
PKG_23
  1

  0
ENDBLK
  5
2B1
330
2AF
100
AcDbEntity
  8
0
100
AcDbBlockEnd
  0
BLOCK
  5
2B3
330
2B2
100
AcDbEntity
  8
0
100
AcDbBlockBegin
  2
PKG_24
 70
     0
 10
0.0
 20
0.0
 30
0.0
  3
PKG_24
  1

  0
ENDBLK
  5
2B4
330
2B2
100
AcDbEntity
  8
0
100
AcDbBlockEnd
  0
BLOCK
  5
2B6
330
2B5
100
AcDbEntity
  8
0
100
AcDbBlockBegin
  2
PART_BODY_TOP_20
 70
     0
 10
0.0
 20
0.0
 30
0.0
  3
PART_BODY_TOP_20
  1

  0
ENDBLK
  5
2B7
330
2B5
100
AcDbEntity
  8
0
100
AcDbBlockEnd
  0
BLOCK
  5
2B9
330
2B8
100
AcDbEntity
  8
0
100
AcDbBlockBegin
  2
STK_TOP_28
 70
     0
 10
0.0
 20
0.0
 30
0.0
  3
STK_TOP_28
  1

  0
ENDBLK
  5
2BA
330
2B8
100
AcDbEntity
  8
0
100
AcDbBlockEnd
  0
BLOCK
  5
2BC
330
2BB
100
AcDbEntity
  8
0
100
AcDbBlockBegin
  2
STK_TOP_29
 70
     0
 10
0.0
 20
0.0
 30
0.0
  3
STK_TOP_29
  1

  0
ENDBLK
  5
2BD
330
2BB
100
AcDbEntity
  8
0
100
AcDbBlockEnd
  0
BLOCK
  5
2BF
330
2BE
100
AcDbEntity
  8
0
100
AcDbBlockBegin
  2
PART_BODY_TOP_21
 70
     0
 10
0.0
 20
0.0
 30
0.0
  3
PART_BODY_TOP_21
  1

  0
ENDBLK
  5
2C0
330
2BE
100
AcDbEntity
  8
0
100
AcDbBlockEnd
  0
BLOCK
  5
2C2
330
2C1
100
AcDbEntity
  8
0
100
AcDbBlockBegin
  2
STK_TOP_32
 70
     0
 10
0.0
 20
0.0
 30
0.0
  3
STK_TOP_32
  1

  0
ENDBLK
  5
2C3
330
2C1
100
AcDbEntity
  8
0
100
AcDbBlockEnd
  0
BLOCK
  5
2C5
330
2C4
100
AcDbEntity
  8
0
100
AcDbBlockBegin
  2
PART_BODY_TOP_22
 70
     0
 10
0.0
 20
0.0
 30
0.0
  3
PART_BODY_TOP_22
  1

  0
ENDBLK
  5
2C6
330
2C4
100
AcDbEntity
  8
0
100
AcDbBlockEnd
  0
BLOCK
  5
2C8
330
2C7
100
AcDbEntity
  8
0
100
AcDbBlockBegin
  2
STK_TOP_37
 70
     0
 10
0.0
 20
0.0
 30
0.0
  3
STK_TOP_37
  1

  0
ENDBLK
  5
2C9
330
2C7
100
AcDbEntity
  8
0
100
AcDbBlockEnd
  0
BLOCK
  5
2CB
330
2CA
100
AcDbEntity
  8
0
100
AcDbBlockBegin
  2
PART_BODY_TOP_23
 70
     0
 10
0.0
 20
0.0
 30
0.0
  3
PART_BODY_TOP_23
  1

  0
ENDBLK
  5
2CC
330
2CA
100
AcDbEntity
  8
0
100
AcDbBlockEnd
  0
BLOCK
  5
2CE
330
2CD
100
AcDbEntity
  8
0
100
AcDbBlockBegin
  2
STK_TOP_38
 70
     0
 10
0.0
 20
0.0
 30
0.0
  3
STK_TOP_38
  1

  0
ENDBLK
  5
2CF
330
2CD
100
AcDbEntity
  8
0
100
AcDbBlockEnd
  0
BLOCK
  5
2D4
330
2D0
100
AcDbEntity
  8
0
100
AcDbBlockBegin
  2
SYM_TOP_17
 70
     0
 10
0.0
 20
0.0
 30
0.0
  3
SYM_TOP_17
  1

  0
INSERT
  5
2D1
330
2D0
100
AcDbEntity
  8
0
  6
CONTINUOUS
 62
     7
100
AcDbBlockReference
  2

 10
0.0
 20
0.0
 30
0.0
  0
INSERT
  5
2D2
330
2D0
100
AcDbEntity
  8
0
  6
CONTINUOUS
 62
     7
100
AcDbBlockReference
  2

 10
-44.450000045339
 20
0.0
 30
0.0
  0
INSERT
  5
2D3
330
2D0
100
AcDbEntity
  8
0
  6
CONTINUOUS
 62
     7
100
AcDbBlockReference
  2

 10
44.450000045339
 20
0.0
 30
0.0
  0
ENDBLK
  5
2D5
330
2D0
100
AcDbEntity
  8
0
100
AcDbBlockEnd
  0
BLOCK
  5
2D7
330
2D6
100
AcDbEntity
  8
0
100
AcDbBlockBegin
  2
PART_BODY_TOP_25
 70
     0
 10
0.0
 20
0.0
 30
0.0
  3
PART_BODY_TOP_25
  1

  0
ENDBLK
  5
2D8
330
2D6
100
AcDbEntity
  8
0
100
AcDbBlockEnd
  0
BLOCK
  5
2DA
330
2D9
100
AcDbEntity
  8
0
100
AcDbBlockBegin
  2
STK_TOP_40
 70
     0
 10
0.0
 20
0.0
 30
0.0
  3
STK_TOP_40
  1

  0
ENDBLK
  5
2DB
330
2D9
100
AcDbEntity
  8
0
100
AcDbBlockEnd
  0
BLOCK
  5
2DD
330
2DC
100
AcDbEntity
  8
0
100
AcDbBlockBegin
  2
PART_BODY_TOP_26
 70
     0
 10
0.0
 20
0.0
 30
0.0
  3
PART_BODY_TOP_26
  1

  0
ENDBLK
  5
2DE
330
2DC
100
AcDbEntity
  8
0
100
AcDbBlockEnd
  0
BLOCK
  5
2E0
330
2DF
100
AcDbEntity
  8
0
100
AcDbBlockBegin
  2
PART_BODY_TOP_27
 70
     0
 10
0.0
 20
0.0
 30
0.0
  3
PART_BODY_TOP_27
  1

  0
ENDBLK
  5
2E1
330
2DF
100
AcDbEntity
  8
0
100
AcDbBlockEnd
  0
BLOCK
  5
2E3
330
2E2
100
AcDbEntity
  8
0
100
AcDbBlockBegin
  2
STK_TOP_41
 70
     0
 10
0.0
 20
0.0
 30
0.0
  3
STK_TOP_41
  1

  0
ENDBLK
  5
2E4
330
2E2
100
AcDbEntity
  8
0
100
AcDbBlockEnd
  0
BLOCK
  5
2E6
330
2E5
100
AcDbEntity
  8
0
100
AcDbBlockBegin
  2
STK_TOP_42
 70
     0
 10
0.0
 20
0.0
 30
0.0
  3
STK_TOP_42
  1

  0
ENDBLK
  5
2E7
330
2E5
100
AcDbEntity
  8
0
100
AcDbBlockEnd
  0
BLOCK
  5
2E9
330
2E8
100
AcDbEntity
  8
0
100
AcDbBlockBegin
  2
PART_BODY_TOP_28
 70
     0
 10
0.0
 20
0.0
 30
0.0
  3
PART_BODY_TOP_28
  1

  0
ENDBLK
  5
2EA
330
2E8
100
AcDbEntity
  8
0
100
AcDbBlockEnd
  0
BLOCK
  5
2EC
330
2EB
100
AcDbEntity
  8
0
100
AcDbBlockBegin
  2
STK_TOP_43
 70
     0
 10
0.0
 20
0.0
 30
0.0
  3
STK_TOP_43
  1

  0
ENDBLK
  5
2ED
330
2EB
100
AcDbEntity
  8
0
100
AcDbBlockEnd
  0
BLOCK
  5
2EF
330
2EE
100
AcDbEntity
  8
0
100
AcDbBlockBegin
  2
PART_BODY_TOP_29
 70
     0
 10
0.0
 20
0.0
 30
0.0
  3
PART_BODY_TOP_29
  1

  0
ENDBLK
  5
2F0
330
2EE
100
AcDbEntity
  8
0
100
AcDbBlockEnd
  0
BLOCK
  5
2F2
330
2F1
100
AcDbEntity
  8
0
100
AcDbBlockBegin
  2
STK_TOP_44
 70
     0
 10
0.0
 20
0.0
 30
0.0
  3
STK_TOP_44
  1

  0
ENDBLK
  5
2F3
330
2F1
100
AcDbEntity
  8
0
100
AcDbBlockEnd
  0
BLOCK
  5
2F5
330
2F4
100
AcDbEntity
  8
0
100
AcDbBlockBegin
  2
STK_TOP_45
 70
     0
 10
0.0
 20
0.0
 30
0.0
  3
STK_TOP_45
  1

  0
ENDBLK
  5
2F6
330
2F4
100
AcDbEntity
  8
0
100
AcDbBlockEnd
  0
BLOCK
  5
2F8
330
2F7
100
AcDbEntity
  8
0
100
AcDbBlockBegin
  2
PART_BODY_TOP_30
 70
     0
 10
0.0
 20
0.0
 30
0.0
  3
PART_BODY_TOP_30
  1

  0
ENDBLK
  5
2F9
330
2F7
100
AcDbEntity
  8
0
100
AcDbBlockEnd
  0
BLOCK
  5
2FB
330
2FA
100
AcDbEntity
  8
0
100
AcDbBlockBegin
  2
STK_TOP_47
 70
     0
 10
0.0
 20
0.0
 30
0.0
  3
STK_TOP_47
  1

  0
ENDBLK
  5
2FC
330
2FA
100
AcDbEntity
  8
0
100
AcDbBlockEnd
  0
BLOCK
  5
2FE
330
2FD
100
AcDbEntity
  8
0
100
AcDbBlockBegin
  2
STK_TOP_46
 70
     0
 10
0.0
 20
0.0
 30
0.0
  3
STK_TOP_46
  1

  0
ENDBLK
  5
2FF
330
2FD
100
AcDbEntity
  8
0
100
AcDbBlockEnd
  0
BLOCK
  5
301
330
300
100
AcDbEntity
  8
0
100
AcDbBlockBegin
  2
PART_BODY_TOP_31
 70
     0
 10
0.0
 20
0.0
 30
0.0
  3
PART_BODY_TOP_31
  1

  0
ENDBLK
  5
302
330
300
100
AcDbEntity
  8
0
100
AcDbBlockEnd
  0
BLOCK
  5
304
330
303
100
AcDbEntity
  8
0
100
AcDbBlockBegin
  2
STK_TOP_48
 70
     0
 10
0.0
 20
0.0
 30
0.0
  3
STK_TOP_48
  1

  0
ENDBLK
  5
305
330
303
100
AcDbEntity
  8
0
100
AcDbBlockEnd
  0
BLOCK
  5
30A
330
306
100
AcDbEntity
  8
0
100
AcDbBlockBegin
  2
SYM_TOP_25
 70
     0
 10
0.0
 20
0.0
 30
0.0
  3
SYM_TOP_25
  1

  0
INSERT
  5
307
330
306
100
AcDbEntity
  8
0
  6
CONTINUOUS
 62
     7
100
AcDbBlockReference
  2

 10
0.0
 20
0.0
 30
0.0
  0
INSERT
  5
308
330
306
100
AcDbEntity
  8
0
  6
CONTINUOUS
 62
     7
100
AcDbBlockReference
  2

 10
-63.50000006477
 20
0.0
 30
0.0
  0
INSERT
  5
309
330
306
100
AcDbEntity
  8
0
  6
CONTINUOUS
 62
     7
100
AcDbBlockReference
  2

 10
63.50000006477
 20
0.0
 30
0.0
  0
ENDBLK
  5
30B
330
306
100
AcDbEntity
  8
0
100
AcDbBlockEnd
  0
BLOCK
  5
30D
330
30C
100
AcDbEntity
  8
0
100
AcDbBlockBegin
  2
PART_BODY_TOP_33
 70
     0
 10
0.0
 20
0.0
 30
0.0
  3
PART_BODY_TOP_33
  1

  0
ENDBLK
  5
30E
330
30C
100
AcDbEntity
  8
0
100
AcDbBlockEnd
  0
BLOCK
  5
310
330
30F
100
AcDbEntity
  8
0
100
AcDbBlockBegin
  2
STK_TOP_50
 70
     0
 10
0.0
 20
0.0
 30
0.0
  3
STK_TOP_50
  1

  0
ENDBLK
  5
311
330
30F
100
AcDbEntity
  8
0
100
AcDbBlockEnd
  0
BLOCK
  5
313
330
312
100
AcDbEntity
  8
0
100
AcDbBlockBegin
  2
PART_BODY_TOP_34
 70
     0
 10
0.0
 20
0.0
 30
0.0
  3
PART_BODY_TOP_34
  1

  0
ENDBLK
  5
314
330
312
100
AcDbEntity
  8
0
100
AcDbBlockEnd
  0
BLOCK
  5
316
330
315
100
AcDbEntity
  8
0
100
AcDbBlockBegin
  2
STK_TOP_51
 70
     0
 10
0.0
 20
0.0
 30
0.0
  3
STK_TOP_51
  1

  0
ENDBLK
  5
317
330
315
100
AcDbEntity
  8
0
100
AcDbBlockEnd
  0
BLOCK
  5
319
330
318
100
AcDbEntity
  8
0
100
AcDbBlockBegin
  2
PART_BODY_TOP_35
 70
     0
 10
0.0
 20
0.0
 30
0.0
  3
PART_BODY_TOP_35
  1

  0
ENDBLK
  5
31A
330
318
100
AcDbEntity
  8
0
100
AcDbBlockEnd
  0
BLOCK
  5
31C
330
31B
100
AcDbEntity
  8
0
100
AcDbBlockBegin
  2
STK_TOP_25
 70
     0
 10
0.0
 20
0.0
 30
0.0
  3
STK_TOP_25
  1

  0
ENDBLK
  5
31D
330
31B
100
AcDbEntity
  8
0
100
AcDbBlockEnd
  0
BLOCK
  5
31F
330
31E
100
AcDbEntity
  8
0
100
AcDbBlockBegin
  2
STK_TOP_24
 70
     0
 10
0.0
 20
0.0
 30
0.0
  3
STK_TOP_24
  1

  0
ENDBLK
  5
320
330
31E
100
AcDbEntity
  8
0
100
AcDbBlockEnd
  0
BLOCK
  5
322
330
321
100
AcDbEntity
  8
0
100
AcDbBlockBegin
  2
PART_BODY_TOP_36
 70
     0
 10
0.0
 20
0.0
 30
0.0
  3
PART_BODY_TOP_36
  1

  0
ENDBLK
  5
323
330
321
100
AcDbEntity
  8
0
100
AcDbBlockEnd
  0
BLOCK
  5
325
330
324
100
AcDbEntity
  8
0
100
AcDbBlockBegin
  2
STK_TOP_52
 70
     0
 10
0.0
 20
0.0
 30
0.0
  3
STK_TOP_52
  1

  0
ENDBLK
  5
326
330
324
100
AcDbEntity
  8
0
100
AcDbBlockEnd
  0
BLOCK
  5
328
330
327
100
AcDbEntity
  8
0
100
AcDbBlockBegin
  2
PART_BODY_TOP_37
 70
     0
 10
0.0
 20
0.0
 30
0.0
  3
PART_BODY_TOP_37
  1

  0
ENDBLK
  5
329
330
327
100
AcDbEntity
  8
0
100
AcDbBlockEnd
  0
BLOCK
  5
32B
330
32A
100
AcDbEntity
  8
0
100
AcDbBlockBegin
  2
STK_TOP_53
 70
     0
 10
0.0
 20
0.0
 30
0.0
  3
STK_TOP_53
  1

  0
ENDBLK
  5
32C
330
32A
100
AcDbEntity
  8
0
100
AcDbBlockEnd
  0
BLOCK
  5
32E
330
32D
100
AcDbEntity
  8
0
100
AcDbBlockBegin
  2
PART_BODY_TOP_38
 70
     0
 10
0.0
 20
0.0
 30
0.0
  3
PART_BODY_TOP_38
  1

  0
ENDBLK
  5
32F
330
32D
100
AcDbEntity
  8
0
100
AcDbBlockEnd
  0
BLOCK
  5
331
330
330
100
AcDbEntity
  8
0
100
AcDbBlockBegin
  2
STK_TOP_54
 70
     0
 10
0.0
 20
0.0
 30
0.0
  3
STK_TOP_54
  1

  0
ENDBLK
  5
332
330
330
100
AcDbEntity
  8
0
100
AcDbBlockEnd
  0
BLOCK
  5
334
330
333
100
AcDbEntity
  8
0
100
AcDbBlockBegin
  2
PART_BODY_TOP_39
 70
     0
 10
0.0
 20
0.0
 30
0.0
  3
PART_BODY_TOP_39
  1

  0
ENDBLK
  5
335
330
333
100
AcDbEntity
  8
0
100
AcDbBlockEnd
  0
BLOCK
  5
337
330
336
100
AcDbEntity
  8
0
100
AcDbBlockBegin
  2
STK_TOP_55
 70
     0
 10
0.0
 20
0.0
 30
0.0
  3
STK_TOP_55
  1

  0
ENDBLK
  5
338
330
336
100
AcDbEntity
  8
0
100
AcDbBlockEnd
  0
BLOCK
  5
33A
330
339
100
AcDbEntity
  8
0
100
AcDbBlockBegin
  2
PART_BODY_TOP_40
 70
     0
 10
0.0
 20
0.0
 30
0.0
  3
PART_BODY_TOP_40
  1

  0
ENDBLK
  5
33B
330
339
100
AcDbEntity
  8
0
100
AcDbBlockEnd
  0
BLOCK
  5
33D
330
33C
100
AcDbEntity
  8
0
100
AcDbBlockBegin
  2
STK_TOP_57
 70
     0
 10
0.0
 20
0.0
 30
0.0
  3
STK_TOP_57
  1

  0
ENDBLK
  5
33E
330
33C
100
AcDbEntity
  8
0
100
AcDbBlockEnd
  0
BLOCK
  5
340
330
33F
100
AcDbEntity
  8
0
100
AcDbBlockBegin
  2
STK_TOP_58
 70
     0
 10
0.0
 20
0.0
 30
0.0
  3
STK_TOP_58
  1

  0
ENDBLK
  5
341
330
33F
100
AcDbEntity
  8
0
100
AcDbBlockEnd
  0
BLOCK
  5
346
330
342
100
AcDbEntity
  8
0
100
AcDbBlockBegin
  2
SYM_TOP_34
 70
     0
 10
0.0
 20
0.0
 30
0.0
  3
SYM_TOP_34
  1

  0
INSERT
  5
343
330
342
100
AcDbEntity
  8
0
  6
CONTINUOUS
 62
     7
100
AcDbBlockReference
  2

 10
0.0
 20
0.0
 30
0.0
  0
INSERT
  5
344
330
342
100
AcDbEntity
  8
0
  6
CONTINUOUS
 62
     7
100
AcDbBlockReference
  2

 10
-32.258000032903
 20
0.0
 30
0.0
  0
INSERT
  5
345
330
342
100
AcDbEntity
  8
0
  6
CONTINUOUS
 62
     7
100
AcDbBlockReference
  2

 10
32.258000032903
 20
0.0
 30
0.0
  0
ENDBLK
  5
347
330
342
100
AcDbEntity
  8
0
100
AcDbBlockEnd
  0
BLOCK
  5
349
330
348
100
AcDbEntity
  8
0
100
AcDbBlockBegin
  2
PART_BODY_TOP_24
 70
     0
 10
0.0
 20
0.0
 30
0.0
  3
PART_BODY_TOP_24
  1

  0
ENDBLK
  5
34A
330
348
100
AcDbEntity
  8
0
100
AcDbBlockEnd
  0
BLOCK
  5
34C
330
34B
100
AcDbEntity
  8
0
100
AcDbBlockBegin
  2
STK_TOP_39
 70
     0
 10
0.0
 20
0.0
 30
0.0
  3
STK_TOP_39
  1

  0
ENDBLK
  5
34D
330
34B
100
AcDbEntity
  8
0
100
AcDbBlockEnd
  0
BLOCK
  5
34F
330
34E
100
AcDbEntity
  8
0
100
AcDbBlockBegin
  2
PART_BODY_TOP_32
 70
     0
 10
0.0
 20
0.0
 30
0.0
  3
PART_BODY_TOP_32
  1

  0
ENDBLK
  5
350
330
34E
100
AcDbEntity
  8
0
100
AcDbBlockEnd
  0
BLOCK
  5
352
330
351
100
AcDbEntity
  8
0
100
AcDbBlockBegin
  2
STK_TOP_49
 70
     0
 10
0.0
 20
0.0
 30
0.0
  3
STK_TOP_49
  1

  0
ENDBLK
  5
353
330
351
100
AcDbEntity
  8
0
100
AcDbBlockEnd
  0
BLOCK
  5
355
330
354
100
AcDbEntity
  8
0
100
AcDbBlockBegin
  2
PART_BODY_TOP_41
 70
     0
 10
0.0
 20
0.0
 30
0.0
  3
PART_BODY_TOP_41
  1

  0
ENDBLK
  5
356
330
354
100
AcDbEntity
  8
0
100
AcDbBlockEnd
  0
BLOCK
  5
358
330
357
100
AcDbEntity
  8
0
100
AcDbBlockBegin
  2
STK_TOP_59
 70
     0
 10
0.0
 20
0.0
 30
0.0
  3
STK_TOP_59
  1

  0
ENDBLK
  5
359
330
357
100
AcDbEntity
  8
0
100
AcDbBlockEnd
  0
BLOCK
  5
35B
330
35A
100
AcDbEntity
  8
0
100
AcDbBlockBegin
  2
STK_TOP_60
 70
     0
 10
0.0
 20
0.0
 30
0.0
  3
STK_TOP_60
  1

  0
ENDBLK
  5
35C
330
35A
100
AcDbEntity
  8
0
100
AcDbBlockEnd
  0
BLOCK
  5
35E
330
35D
100
AcDbEntity
  8
0
100
AcDbBlockBegin
  2
PCB_PARAMS
 70
     0
 10
0.0
 20
0.0
 30
0.0
  3
PCB_PARAMS
  1

  0
ENDBLK
  5
35F
330
35D
100
AcDbEntity
  8
0
100
AcDbBlockEnd
  0
BLOCK
  5
361
330
360
100
AcDbEntity
  8
0
100
AcDbBlockBegin
  2
DRIL_SYMBOL_0$9
 70
     0
 10
0.0
 20
0.0
 30
0.0
  3
DRIL_SYMBOL_0$9
  1

  0
ENDBLK
  5
362
330
360
100
AcDbEntity
  8
0
100
AcDbBlockEnd
  0
BLOCK
  5
364
330
363
100
AcDbEntity
  8
0
100
AcDbBlockBegin
  2
DRIL_SYMBOL_1
 70
     0
 10
0.0
 20
0.0
 30
0.0
  3
DRIL_SYMBOL_1
  1

  0
ENDBLK
  5
365
330
363
100
AcDbEntity
  8
0
100
AcDbBlockEnd
  0
BLOCK
  5
367
330
366
100
AcDbEntity
  8
0
100
AcDbBlockBegin
  2
DRIL_SYMBOL_2$2
 70
     0
 10
0.0
 20
0.0
 30
0.0
  3
DRIL_SYMBOL_2$2
  1

  0
ENDBLK
  5
368
330
366
100
AcDbEntity
  8
0
100
AcDbBlockEnd
  0
BLOCK
  5
36A
330
369
100
AcDbEntity
  8
0
100
AcDbBlockBegin
  2
DRIL_SYMBOL_0
 70
     0
 10
0.0
 20
0.0
 30
0.0
  3
DRIL_SYMBOL_0
  1

  0
ENDBLK
  5
36B
330
369
100
AcDbEntity
  8
0
100
AcDbBlockEnd
  0
BLOCK
  5
36D
330
36C
100
AcDbEntity
  8
0
100
AcDbBlockBegin
  2
DRIL_SYMBOL_0$6
 70
     0
 10
0.0
 20
0.0
 30
0.0
  3
DRIL_SYMBOL_0$6
  1

  0
ENDBLK
  5
36E
330
36C
100
AcDbEntity
  8
0
100
AcDbBlockEnd
  0
BLOCK
  5
370
330
36F
100
AcDbEntity
  8
0
100
AcDbBlockBegin
  2
DRIL_SYMBOL_1$3
 70
     0
 10
0.0
 20
0.0
 30
0.0
  3
DRIL_SYMBOL_1$3
  1

  0
ENDBLK
  5
371
330
36F
100
AcDbEntity
  8
0
100
AcDbBlockEnd
  0
BLOCK
  5
373
330
372
100
AcDbEntity
  8
0
100
AcDbBlockBegin
  2
DRIL_SYMBOL_6$5
 70
     0
 10
0.0
 20
0.0
 30
0.0
  3
DRIL_SYMBOL_6$5
  1

  0
ENDBLK
  5
374
330
372
100
AcDbEntity
  8
0
100
AcDbBlockEnd
  0
BLOCK
  5
376
330
375
100
AcDbEntity
  8
0
100
AcDbBlockBegin
  2
DRIL_SYMBOL_0$7
 70
     0
 10
0.0
 20
0.0
 30
0.0
  3
DRIL_SYMBOL_0$7
  1

  0
ENDBLK
  5
377
330
375
100
AcDbEntity
  8
0
100
AcDbBlockEnd
  0
BLOCK
  5
379
330
378
100
AcDbEntity
  8
0
100
AcDbBlockBegin
  2
DRIL_SYMBOL_0$8
 70
     0
 10
0.0
 20
0.0
 30
0.0
  3
DRIL_SYMBOL_0$8
  1

  0
ENDBLK
  5
37A
330
378
100
AcDbEntity
  8
0
100
AcDbBlockEnd
  0
BLOCK
  5
37C
330
37B
100
AcDbEntity
  8
0
100
AcDbBlockBegin
  2
DRIL_SYMBOL_1$2
 70
     0
 10
0.0
 20
0.0
 30
0.0
  3
DRIL_SYMBOL_1$2
  1

  0
ENDBLK
  5
37D
330
37B
100
AcDbEntity
  8
0
100
AcDbBlockEnd
  0
BLOCK
  5
381
330
37E
100
AcDbEntity
  8
0
100
AcDbBlockBegin
  2
SMOOTH_0$0254
 70
     0
 10
0.0
 20
0.0
 30
0.0
  3
SMOOTH_0$0254
  1

  0
ARC
  5
37F
330
37E
100
AcDbEntity
  8
0
  6
CONTINUOUS
 62
     7
100
AcDbCircle
 10
0.0
 20
-0.000000213999
 30
0.0
 40
0.1612900001646577
100
AcDbArc
 50
179.999923980252
 51
359.999923980252
  0
ARC
  5
380
330
37E
100
AcDbEntity
  8
0
  6
CONTINUOUS
 62
     7
100
AcDbCircle
 10
0.0
 20
0.000000213999
 30
0.0
 40
0.1612900001646577
100
AcDbArc
 50
359.999923980252
 51
179.999923980252
  0
ENDBLK
  5
382
330
37E
100
AcDbEntity
  8
0
100
AcDbBlockEnd
  0
BLOCK
  5
386
330
383
100
AcDbEntity
  8
0
100
AcDbBlockBegin
  2
SMOOTH_0$15
 70
     0
 10
0.0
 20
0.0
 30
0.0
  3
SMOOTH_0$15
  1

  0
ARC
  5
384
330
383
100
AcDbEntity
  8
0
  6
CONTINUOUS
 62
     7
100
AcDbCircle
 10
0.0
 20
-0.000001263772
 30
0.0
 40
0.9525000009723884
100
AcDbArc
 50
179.999923980252
 51
359.999923980252
  0
ARC
  5
385
330
383
100
AcDbEntity
  8
0
  6
CONTINUOUS
 62
     7
100
AcDbCircle
 10
0.0
 20
0.000001263772
 30
0.0
 40
0.9525000009723883
100
AcDbArc
 50
359.999923980252
 51
179.999923980252
  0
ENDBLK
  5
387
330
383
100
AcDbEntity
  8
0
100
AcDbBlockEnd
  0
BLOCK
  5
38B
330
388
100
AcDbEntity
  8
0
100
AcDbBlockBegin
  2
SMOOTH_0$1
 70
     0
 10
0.0
 20
0.0
 30
0.0
  3
SMOOTH_0$1
  1

  0
ARC
  5
389
330
388
100
AcDbEntity
  8
0
  6
CONTINUOUS
 62
     7
100
AcDbCircle
 10
0.0
 20
-0.000000842515
 30
0.0
 40
0.6350000006482589
100
AcDbArc
 50
179.999923980252
 51
359.999923980252
  0
ARC
  5
38A
330
388
100
AcDbEntity
  8
0
  6
CONTINUOUS
 62
     7
100
AcDbCircle
 10
0.0
 20
0.000000842515
 30
0.0
 40
0.6350000006482589
100
AcDbArc
 50
359.999923980252
 51
179.999923980252
  0
ENDBLK
  5
38C
330
388
100
AcDbEntity
  8
0
100
AcDbBlockEnd
  0
BLOCK
  5
390
330
38D
100
AcDbEntity
  8
0
100
AcDbBlockBegin
  2
SMOOTH_0$254
 70
     0
 10
0.0
 20
0.0
 30
0.0
  3
SMOOTH_0$254
  1

  0
ARC
  5
38E
330
38D
100
AcDbEntity
  8
0
  6
CONTINUOUS
 62
     7
100
AcDbCircle
 10
0.0
 20
-0.000002139987
 30
0.0
 40
1.612900001646578
100
AcDbArc
 50
179.999923980252
 51
359.999923980252
  0
ARC
  5
38F
330
38D
100
AcDbEntity
  8
0
  6
CONTINUOUS
 62
     7
100
AcDbCircle
 10
0.0
 20
0.000002139987
 30
0.0
 40
1.612900001646578
100
AcDbArc
 50
359.999923980252
 51
179.999923980252
  0
ENDBLK
  5
391
330
38D
100
AcDbEntity
  8
0
100
AcDbBlockEnd
  0
BLOCK
  5
395
330
392
100
AcDbEntity
  8
0
100
AcDbBlockBegin
  2
SMOOTH_0$2
 70
     0
 10
0.0
 20
0.0
 30
0.0
  3
SMOOTH_0$2
  1

  0
ARC
  5
393
330
392
100
AcDbEntity
  8
0
  6
CONTINUOUS
 62
     7
100
AcDbCircle
 10
0.0
 20
-0.00000168503
 30
0.0
 40
1.270000001296518
100
AcDbArc
 50
179.999923980252
 51
359.999923980252
  0
ARC
  5
394
330
392
100
AcDbEntity
  8
0
  6
CONTINUOUS
 62
     7
100
AcDbCircle
 10
0.0
 20
0.00000168503
 30
0.0
 40
1.270000001296518
100
AcDbArc
 50
359.999923980252
 51
179.999923980252
  0
ENDBLK
  5
396
330
392
100
AcDbEntity
  8
0
100
AcDbBlockEnd
  0
BLOCK
  5
39A
330
397
100
AcDbEntity
  8
0
100
AcDbBlockBegin
  2
PAD_0
 70
     0
 10
0.0
 20
0.0
 30
0.0
  3
PAD_0
  1

  0
ARC
  5
398
330
397
100
AcDbEntity
  8
0
  6
CONTINUOUS
 62
     7
100
AcDbCircle
 10
0.000014322751
 20
0.0
 30
0.0
 40
10.7950000110204
100
AcDbArc
 50
269.999923980252
 51
89.999923980252
  0
ARC
  5
399
330
397
100
AcDbEntity
  8
0
  6
CONTINUOUS
 62
     7
100
AcDbCircle
 10
-0.000014322751
 20
0.0
 30
0.0
 40
10.7950000110204
100
AcDbArc
 50
89.999923980252
 51
269.999923980252
  0
ENDBLK
  5
39B
330
397
100
AcDbEntity
  8
0
100
AcDbBlockEnd
  0
BLOCK
  5
39E
330
39C
100
AcDbEntity
  8
0
100
AcDbBlockBegin
  2
PAD_1
 70
     0
 10
0.0
 20
0.0
 30
0.0
  3
PAD_1
  1

  0
LWPOLYLINE
  5
39D
330
39C
100
AcDbEntity
  8
0
  6
CONTINUOUS
 62
     7
100
AcDbPolyline
 90
        2
 70
     0
 43
0.0
 10
-21.590000022022
 20
0.0
 10
21.590000022022
 20
0.0
  0
ENDBLK
  5
39F
330
39C
100
AcDbEntity
  8
0
100
AcDbBlockEnd
  0
BLOCK
  5
3A1
330
3A0
100
AcDbEntity
  8
0
100
AcDbBlockBegin
  2
PAD_2
 70
     0
 10
0.0
 20
0.0
 30
0.0
  3
PAD_2
  1

  0
ENDBLK
  5
3A2
330
3A0
100
AcDbEntity
  8
0
100
AcDbBlockEnd
  0
BLOCK
  5
3A5
330
3A3
100
AcDbEntity
  8
0
100
AcDbBlockBegin
  2
PAD_3
 70
     0
 10
0.0
 20
0.0
 30
0.0
  3
PAD_3
  1

  0
LWPOLYLINE
  5
3A4
330
3A3
100
AcDbEntity
  8
0
  6
CONTINUOUS
 62
     7
100
AcDbPolyline
 90
        2
 70
     0
 43
0.0
 10
-10.160000010363
 20
0.0
 10
10.160000010363
 20
0.0
  0
ENDBLK
  5
3A6
330
3A3
100
AcDbEntity
  8
0
100
AcDbBlockEnd
  0
BLOCK
  5
3AA
330
3A7
100
AcDbEntity
  8
0
100
AcDbBlockBegin
  2
PAD_4
 70
     0
 10
0.0
 20
0.0
 30
0.0
  3
PAD_4
  1

  0
ARC
  5
3A8
330
3A7
100
AcDbEntity
  8
0
  6
CONTINUOUS
 62
     7
100
AcDbCircle
 10
0.000010952692
 20
0.0
 30
0.0
 40
8.255000008427364
100
AcDbArc
 50
269.999923980252
 51
89.999923980252
  0
ARC
  5
3A9
330
3A7
100
AcDbEntity
  8
0
  6
CONTINUOUS
 62
     7
100
AcDbCircle
 10
-0.000010952692
 20
0.0
 30
0.0
 40
8.255000008427366
100
AcDbArc
 50
89.999923980252
 51
269.999923980252
  0
ENDBLK
  5
3AB
330
3A7
100
AcDbEntity
  8
0
100
AcDbBlockEnd
  0
BLOCK
  5
3AE
330
3AC
100
AcDbEntity
  8
0
100
AcDbBlockBegin
  2
PAD_5
 70
     0
 10
0.0
 20
0.0
 30
0.0
  3
PAD_5
  1

  0
LWPOLYLINE
  5
3AD
330
3AC
100
AcDbEntity
  8
0
  6
CONTINUOUS
 62
     7
100
AcDbPolyline
 90
        2
 70
     0
 43
0.0
 10
-33.02000003368
 20
0.0
 10
33.02000003368
 20
0.0
  0
ENDBLK
  5
3AF
330
3AC
100
AcDbEntity
  8
0
100
AcDbBlockEnd
  0
BLOCK
  5
3B3
330
3B0
100
AcDbEntity
  8
0
100
AcDbBlockBegin
  2
PAD_6
 70
     0
 10
0.0
 20
0.0
 30
0.0
  3
PAD_6
  1

  0
ARC
  5
3B1
330
3B0
100
AcDbEntity
  8
0
  6
CONTINUOUS
 62
     7
100
AcDbCircle
 10
0.000021062869
 20
0.0
 30
0.0
 40
15.87500001620647
100
AcDbArc
 50
269.999923980252
 51
89.999923980252
  0
ARC
  5
3B2
330
3B0
100
AcDbEntity
  8
0
  6
CONTINUOUS
 62
     7
100
AcDbCircle
 10
-0.000021062869
 20
0.0
 30
0.0
 40
15.87500001620647
100
AcDbArc
 50
89.999923980252
 51
269.999923980252
  0
ENDBLK
  5
3B4
330
3B0
100
AcDbEntity
  8
0
100
AcDbBlockEnd
  0
BLOCK
  5
3B7
330
3B5
100
AcDbEntity
  8
0
100
AcDbBlockBegin
  2
PAD_7
 70
     0
 10
0.0
 20
0.0
 30
0.0
  3
PAD_7
  1

  0
LWPOLYLINE
  5
3B6
330
3B5
100
AcDbEntity
  8
0
  6
CONTINUOUS
 62
     7
100
AcDbPolyline
 90
        2
 70
     0
 43
0.0
 10
-20.320000020726
 20
0.0
 10
20.320000020726
 20
0.0
  0
ENDBLK
  5
3B8
330
3B5
100
AcDbEntity
  8
0
100
AcDbBlockEnd
  0
BLOCK
  5
3BB
330
3B9
100
AcDbEntity
  8
0
100
AcDbBlockBegin
  2
PAD_8
 70
     0
 10
0.0
 20
0.0
 30
0.0
  3
PAD_8
  1

  0
LWPOLYLINE
  5
3BA
330
3B9
100
AcDbEntity
  8
0
  6
CONTINUOUS
 62
     7
100
AcDbPolyline
 90
        2
 70
     0
 43
0.0
 10
-24.130000024613
 20
0.0
 10
24.130000024613
 20
0.0
  0
ENDBLK
  5
3BC
330
3B9
100
AcDbEntity
  8
0
100
AcDbBlockEnd
  0
BLOCK
  5
3BF
330
3BD
100
AcDbEntity
  8
0
100
AcDbBlockBegin
  2
PAD_9
 70
     0
 10
0.0
 20
0.0
 30
0.0
  3
PAD_9
  1

  0
LWPOLYLINE
  5
3BE
330
3BD
100
AcDbEntity
  8
0
  6
CONTINUOUS
 62
     7
100
AcDbPolyline
 90
        2
 70
     0
 43
0.0
 10
-35.560000036271
 20
0.0
 10
35.560000036271
 20
0.0
  0
ENDBLK
  5
3C0
330
3BD
100
AcDbEntity
  8
0
100
AcDbBlockEnd
  0
BLOCK
  5
3C4
330
3C1
100
AcDbEntity
  8
0
100
AcDbBlockBegin
  2
PAD_10
 70
     0
 10
0.0
 20
0.0
 30
0.0
  3
PAD_10
  1

  0
ARC
  5
3C2
330
3C1
100
AcDbEntity
  8
0
  6
CONTINUOUS
 62
     7
100
AcDbCircle
 10
0.000016850295
 20
0.0
 30
0.0
 40
12.70000001296518
100
AcDbArc
 50
269.999923980252
 51
89.999923980252
  0
ARC
  5
3C3
330
3C1
100
AcDbEntity
  8
0
  6
CONTINUOUS
 62
     7
100
AcDbCircle
 10
-0.000016850295
 20
0.0
 30
0.0
 40
12.70000001296518
100
AcDbArc
 50
89.999923980252
 51
269.999923980252
  0
ENDBLK
  5
3C5
330
3C1
100
AcDbEntity
  8
0
100
AcDbBlockEnd
  0
BLOCK
  5
3C8
330
3C6
100
AcDbEntity
  8
0
100
AcDbBlockBegin
  2
PAD_11
 70
     0
 10
0.0
 20
0.0
 30
0.0
  3
PAD_11
  1

  0
LWPOLYLINE
  5
3C7
330
3C6
100
AcDbEntity
  8
0
  6
CONTINUOUS
 62
     7
100
AcDbPolyline
 90
        2
 70
     0
 43
0.0
 10
-25.400000025908
 20
0.0
 10
25.400000025908
 20
0.0
  0
ENDBLK
  5
3C9
330
3C6
100
AcDbEntity
  8
0
100
AcDbBlockEnd
  0
BLOCK
  5
3CD
330
3CA
100
AcDbEntity
  8
0
100
AcDbBlockBegin
  2
PAD_12
 70
     0
 10
0.0
 20
0.0
 30
0.0
  3
PAD_12
  1

  0
ARC
  5
3CB
330
3CA
100
AcDbEntity
  8
0
  6
CONTINUOUS
 62
     7
100
AcDbCircle
 10
0.000012637721
 20
0.0
 30
0.0
 40
9.525000009723882
100
AcDbArc
 50
269.999923980252
 51
89.999923980252
  0
ARC
  5
3CC
330
3CA
100
AcDbEntity
  8
0
  6
CONTINUOUS
 62
     7
100
AcDbCircle
 10
-0.000012637721
 20
0.0
 30
0.0
 40
9.525000009723884
100
AcDbArc
 50
89.999923980252
 51
269.999923980252
  0
ENDBLK
  5
3CE
330
3CA
100
AcDbEntity
  8
0
100
AcDbBlockEnd
  0
BLOCK
  5
3D1
330
3CF
100
AcDbEntity
  8
0
100
AcDbBlockBegin
  2
PAD_13
 70
     0
 10
0.0
 20
0.0
 30
0.0
  3
PAD_13
  1

  0
LWPOLYLINE
  5
3D0
330
3CF
100
AcDbEntity
  8
0
  6
CONTINUOUS
 62
     7
100
AcDbPolyline
 90
        2
 70
     0
 43
0.0
 10
0.0
 20
0.0
 10
0.0
 20
0.0
  0
ENDBLK
  5
3D2
330
3CF
100
AcDbEntity
  8
0
100
AcDbBlockEnd
  0
BLOCK
  5
3D5
330
3D3
100
AcDbEntity
  8
0
100
AcDbBlockBegin
  2
PAD_14
 70
     0
 10
0.0
 20
0.0
 30
0.0
  3
PAD_14
  1

  0
LWPOLYLINE
  5
3D4
330
3D3
100
AcDbEntity
  8
0
  6
CONTINUOUS
 62
     7
100
AcDbPolyline
 90
        2
 70
     0
 43
0.0
 10
-19.050000019431
 20
0.0
 10
19.050000019431
 20
0.0
  0
ENDBLK
  5
3D6
330
3D3
100
AcDbEntity
  8
0
100
AcDbBlockEnd
  0
BLOCK
  5
3E0
330
3D7
100
AcDbEntity
  8
0
100
AcDbBlockBegin
  2
PAD_15
 70
     0
 10
0.0
 20
0.0
 30
0.0
  3
PAD_15
  1

  0
ARC
  5
3D8
330
3D7
100
AcDbEntity
  8
0
  6
CONTINUOUS
 62
     7
100
AcDbCircle
 10
0.000018535325
 20
0.0
 30
0.0
 40
13.9700000142617
100
AcDbArc
 50
269.999923980252
 51
89.999923980252
  0
ARC
  5
3D9
330
3D7
100
AcDbEntity
  8
0
  6
CONTINUOUS
 62
     7
100
AcDbCircle
 10
-0.000018535325
 20
0.0
 30
0.0
 40
13.97000001426169
100
AcDbArc
 50
89.999923980252
 51
269.999923980252
  0
ARC
  5
3DA
330
3D7
100
AcDbEntity
  8
0
  6
CONTINUOUS
 62
     7
100
AcDbCircle
 10
0.000025275443
 20
0.0
 30
0.0
 40
19.05000001944776
100
AcDbArc
 50
269.999923980252
 51
89.999923980252
  0
ARC
  5
3DB
330
3D7
100
AcDbEntity
  8
0
  6
CONTINUOUS
 62
     7
100
AcDbCircle
 10
-0.000025275443
 20
0.0
 30
0.0
 40
19.05000001944777
100
AcDbArc
 50
89.999923980252
 51
269.999923980252
  0
LWPOLYLINE
  5
3DC
330
3D7
100
AcDbEntity
  8
0
  6
CONTINUOUS
 62
     7
100
AcDbPolyline
 90
        2
 70
     0
 43
0.0
 10
0.0
 20
13.970000014249
 10
0.0
 20
19.050000019431
  0
LWPOLYLINE
  5
3DD
330
3D7
100
AcDbEntity
  8
0
  6
CONTINUOUS
 62
     7
100
AcDbPolyline
 90
        2
 70
     0
 43
0.0
 10
-13.970000014249
 20
0.0
 10
-19.050000019431
 20
0.0
  0
LWPOLYLINE
  5
3DE
330
3D7
100
AcDbEntity
  8
0
  6
CONTINUOUS
 62
     7
100
AcDbPolyline
 90
        2
 70
     0
 43
0.0
 10
0.0
 20
-13.970000014249
 10
0.0
 20
-19.050000019431
  0
LWPOLYLINE
  5
3DF
330
3D7
100
AcDbEntity
  8
0
  6
CONTINUOUS
 62
     7
100
AcDbPolyline
 90
        2
 70
     0
 43
0.0
 10
13.970000014249
 20
0.0
 10
19.050000019431
 20
0.0
  0
ENDBLK
  5
3E1
330
3D7
100
AcDbEntity
  8
0
100
AcDbBlockEnd
  0
BLOCK
  5
3E5
330
3E2
100
AcDbEntity
  8
0
100
AcDbBlockBegin
  2
PAD_16
 70
     0
 10
0.0
 20
0.0
 30
0.0
  3
PAD_16
  1

  0
ARC
  5
3E3
330
3E2
100
AcDbEntity
  8
0
  6
CONTINUOUS
 62
     7
100
AcDbCircle
 10
0.000005897603
 20
0.0
 30
0.0
 40
4.445000004537812
100
AcDbArc
 50
269.999923980252
 51
89.999923980252
  0
ARC
  5
3E4
330
3E2
100
AcDbEntity
  8
0
  6
CONTINUOUS
 62
     7
100
AcDbCircle
 10
-0.000005897603
 20
0.0
 30
0.0
 40
4.445000004537812
100
AcDbArc
 50
89.999923980252
 51
269.999923980252
  0
ENDBLK
  5
3E6
330
3E2
100
AcDbEntity
  8
0
100
AcDbBlockEnd
  0
BLOCK
  5
3F0
330
3E7
100
AcDbEntity
  8
0
100
AcDbBlockBegin
  2
PAD_17
 70
     0
 10
0.0
 20
0.0
 30
0.0
  3
PAD_17
  1

  0
ARC
  5
3E8
330
3E7
100
AcDbEntity
  8
0
  6
CONTINUOUS
 62
     7
100
AcDbCircle
 10
0.000011795207
 20
0.0
 30
0.0
 40
8.890000009075624
100
AcDbArc
 50
269.999923980252
 51
89.999923980252
  0
ARC
  5
3E9
330
3E7
100
AcDbEntity
  8
0
  6
CONTINUOUS
 62
     7
100
AcDbCircle
 10
-0.000011795207
 20
0.0
 30
0.0
 40
8.890000009075624
100
AcDbArc
 50
89.999923980252
 51
269.999923980252
  0
ARC
  5
3EA
330
3E7
100
AcDbEntity
  8
0
  6
CONTINUOUS
 62
     7
100
AcDbCircle
 10
0.000018535325
 20
0.0
 30
0.0
 40
13.9700000142617
100
AcDbArc
 50
269.999923980252
 51
89.999923980252
  0
ARC
  5
3EB
330
3E7
100
AcDbEntity
  8
0
  6
CONTINUOUS
 62
     7
100
AcDbCircle
 10
-0.000018535325
 20
0.0
 30
0.0
 40
13.97000001426169
100
AcDbArc
 50
89.999923980252
 51
269.999923980252
  0
LWPOLYLINE
  5
3EC
330
3E7
100
AcDbEntity
  8
0
  6
CONTINUOUS
 62
     7
100
AcDbPolyline
 90
        2
 70
     0
 43
0.0
 10
0.0
 20
8.890000009068
 10
0.0
 20
13.970000014249
  0
LWPOLYLINE
  5
3ED
330
3E7
100
AcDbEntity
  8
0
  6
CONTINUOUS
 62
     7
100
AcDbPolyline
 90
        2
 70
     0
 43
0.0
 10
-8.890000009068
 20
0.0
 10
-13.970000014249
 20
0.0
  0
LWPOLYLINE
  5
3EE
330
3E7
100
AcDbEntity
  8
0
  6
CONTINUOUS
 62
     7
100
AcDbPolyline
 90
        2
 70
     0
 43
0.0
 10
0.0
 20
-8.890000009068
 10
0.0
 20
-13.970000014249
  0
LWPOLYLINE
  5
3EF
330
3E7
100
AcDbEntity
  8
0
  6
CONTINUOUS
 62
     7
100
AcDbPolyline
 90
        2
 70
     0
 43
0.0
 10
8.890000009068
 20
0.0
 10
13.970000014249
 20
0.0
  0
ENDBLK
  5
3F1
330
3E7
100
AcDbEntity
  8
0
100
AcDbBlockEnd
  0
BLOCK
  5
3F5
330
3F2
100
AcDbEntity
  8
0
100
AcDbBlockBegin
  2
PAD_18
 70
     0
 10
0.0
 20
0.0
 30
0.0
  3
PAD_18
  1

  0
ARC
  5
3F3
330
3F2
100
AcDbEntity
  8
0
  6
CONTINUOUS
 62
     7
100
AcDbCircle
 10
0.000008846405
 20
0.0
 30
0.0
 40
6.667500006806718
100
AcDbArc
 50
269.999923980252
 51
89.999923980252
  0
ARC
  5
3F4
330
3F2
100
AcDbEntity
  8
0
  6
CONTINUOUS
 62
     7
100
AcDbCircle
 10
-0.000008846405
 20
0.0
 30
0.0
 40
6.667500006806718
100
AcDbArc
 50
89.999923980252
 51
269.999923980252
  0
ENDBLK
  5
3F6
330
3F2
100
AcDbEntity
  8
0
100
AcDbBlockEnd
  0
BLOCK
  5
3F9
330
3F7
100
AcDbEntity
  8
0
100
AcDbBlockBegin
  2
PAD_19
 70
     0
 10
0.0
 20
0.0
 30
0.0
  3
PAD_19
  1

  0
LWPOLYLINE
  5
3F8
330
3F7
100
AcDbEntity
  8
0
  6
CONTINUOUS
 62
     7
100
AcDbPolyline
 90
        2
 70
     0
 43
0.0
 10
-12.700000012954
 20
0.0
 10
12.700000012954
 20
0.0
  0
ENDBLK
  5
3FA
330
3F7
100
AcDbEntity
  8
0
100
AcDbBlockEnd
  0
BLOCK
  5
3FD
330
3FB
100
AcDbEntity
  8
0
100
AcDbBlockBegin
  2
PAD_20
 70
     0
 10
0.0
 20
0.0
 30
0.0
  3
PAD_20
  1

  0
LWPOLYLINE
  5
3FC
330
3FB
100
AcDbEntity
  8
0
  6
CONTINUOUS
 62
     7
100
AcDbPolyline
 90
        2
 70
     0
 43
0.0
 10
-50.800000051816
 20
0.0
 10
50.800000051816
 20
0.0
  0
ENDBLK
  5
3FE
330
3FB
100
AcDbEntity
  8
0
100
AcDbBlockEnd
  0
BLOCK
  5
401
330
3FF
100
AcDbEntity
  8
0
100
AcDbBlockBegin
  2
PAD_21
 70
     0
 10
0.0
 20
0.0
 30
0.0
  3
PAD_21
  1

  0
LWPOLYLINE
  5
400
330
3FF
100
AcDbEntity
  8
0
  6
CONTINUOUS
 62
     7
100
AcDbPolyline
 90
        2
 70
     0
 43
0.0
 10
-16.51000001684
 20
0.0
 10
16.51000001684
 20
0.0
  0
ENDBLK
  5
402
330
3FF
100
AcDbEntity
  8
0
100
AcDbBlockEnd
  0
BLOCK
  5
405
330
403
100
AcDbEntity
  8
0
100
AcDbBlockBegin
  2
PAD_22
 70
     0
 10
0.0
 20
0.0
 30
0.0
  3
PAD_22
  1

  0
LWPOLYLINE
  5
404
330
403
100
AcDbEntity
  8
0
  6
CONTINUOUS
 62
     7
100
AcDbPolyline
 90
        2
 70
     0
 43
0.0
 10
-22.580600023032
 20
0.0
 10
22.580600023032
 20
0.0
  0
ENDBLK
  5
406
330
403
100
AcDbEntity
  8
0
100
AcDbBlockEnd
  0
BLOCK
  5
40A
330
407
100
AcDbEntity
  8
0
100
AcDbBlockBegin
  2
PAD_23
 70
     0
 10
0.0
 20
0.0
 30
0.0
  3
PAD_23
  1

  0
ARC
  5
408
330
407
100
AcDbEntity
  8
0
  6
CONTINUOUS
 62
     7
100
AcDbCircle
 10
0.000014979912
 20
0.0
 30
0.0
 40
11.29030001152604
100
AcDbArc
 50
269.999923980252
 51
89.999923980252
  0
ARC
  5
409
330
407
100
AcDbEntity
  8
0
  6
CONTINUOUS
 62
     7
100
AcDbCircle
 10
-0.000014979912
 20
0.0
 30
0.0
 40
11.29030001152604
100
AcDbArc
 50
89.999923980252
 51
269.999923980252
  0
ENDBLK
  5
40B
330
407
100
AcDbEntity
  8
0
100
AcDbBlockEnd
  0
BLOCK
  5
410
330
40C
100
AcDbEntity
  8
0
100
AcDbBlockBegin
  2
DRIL_HOLE_0$9
 70
     0
 10
0.0
 20
0.0
 30
0.0
  3
DRIL_HOLE_0$9
  1

  0
ARC
  5
40D
330
40C
100
AcDbEntity
  8
0
  6
CONTINUOUS
 62
     7
100
AcDbCircle
 10
0.0
 20
-0.000007582633
 30
0.0
 40
5.71500000583433
100
AcDbArc
 50
179.999923980252
 51
359.999923980252
  0
ARC
  5
40E
330
40C
100
AcDbEntity
  8
0
  6
CONTINUOUS
 62
     7
100
AcDbCircle
 10
0.0
 20
0.000007582633
 30
0.0
 40
5.71500000583433
100
AcDbArc
 50
359.999923980252
 51
179.999923980252
  0
INSERT
  5
40F
330
40C
100
AcDbEntity
  8
0
  6
CONTINUOUS
 62
     7
100
AcDbBlockReference
  2
DRIL_SYMBOL_0$9
 10
0.0
 20
0.0
 30
0.0
  0
ENDBLK
  5
411
330
40C
100
AcDbEntity
  8
0
100
AcDbBlockEnd
  0
BLOCK
  5
416
330
412
100
AcDbEntity
  8
0
100
AcDbBlockBegin
  2
DRIL_HOLE_1
 70
     0
 10
0.0
 20
0.0
 30
0.0
  3
DRIL_HOLE_1
  1

  0
ARC
  5
413
330
412
100
AcDbEntity
  8
0
  6
CONTINUOUS
 62
     7
100
AcDbCircle
 10
0.0
 20
-0.000008425148
 30
0.0
 40
6.350000006482589
100
AcDbArc
 50
179.999923980252
 51
359.999923980252
  0
ARC
  5
414
330
412
100
AcDbEntity
  8
0
  6
CONTINUOUS
 62
     7
100
AcDbCircle
 10
0.0
 20
0.000008425148
 30
0.0
 40
6.350000006482589
100
AcDbArc
 50
359.999923980252
 51
179.999923980252
  0
INSERT
  5
415
330
412
100
AcDbEntity
  8
0
  6
CONTINUOUS
 62
     7
100
AcDbBlockReference
  2
DRIL_SYMBOL_1
 10
0.0
 20
0.0
 30
0.0
  0
ENDBLK
  5
417
330
412
100
AcDbEntity
  8
0
100
AcDbBlockEnd
  0
BLOCK
  5
41C
330
418
100
AcDbEntity
  8
0
100
AcDbBlockBegin
  2
DRIL_HOLE_2$2
 70
     0
 10
0.0
 20
0.0
 30
0.0
  3
DRIL_HOLE_2$2
  1

  0
ARC
  5
419
330
418
100
AcDbEntity
  8
0
  6
CONTINUOUS
 62
     7
100
AcDbCircle
 10
0.0
 20
-0.000018535325
 30
0.0
 40
13.9700000142617
100
AcDbArc
 50
179.999923980252
 51
359.999923980252
  0
ARC
  5
41A
330
418
100
AcDbEntity
  8
0
  6
CONTINUOUS
 62
     7
100
AcDbCircle
 10
0.0
 20
0.000018535325
 30
0.0
 40
13.97000001426169
100
AcDbArc
 50
359.999923980252
 51
179.999923980252
  0
INSERT
  5
41B
330
418
100
AcDbEntity
  8
0
  6
CONTINUOUS
 62
     7
100
AcDbBlockReference
  2
DRIL_SYMBOL_2$2
 10
0.0
 20
0.0
 30
0.0
  0
ENDBLK
  5
41D
330
418
100
AcDbEntity
  8
0
100
AcDbBlockEnd
  0
BLOCK
  5
420
330
41E
100
AcDbEntity
  8
0
100
AcDbBlockBegin
  2
DRIL_HOLE_0
 70
     0
 10
0.0
 20
0.0
 30
0.0
  3
DRIL_HOLE_0
  1

  0
INSERT
  5
41F
330
41E
100
AcDbEntity
  8
0
  6
CONTINUOUS
 62
     7
100
AcDbBlockReference
  2
DRIL_SYMBOL_0
 10
0.0
 20
0.0
 30
0.0
  0
ENDBLK
  5
421
330
41E
100
AcDbEntity
  8
0
100
AcDbBlockEnd
  0
BLOCK
  5
426
330
422
100
AcDbEntity
  8
0
100
AcDbBlockBegin
  2
DRIL_HOLE_0$6
 70
     0
 10
0.0
 20
0.0
 30
0.0
  3
DRIL_HOLE_0$6
  1

  0
ARC
  5
423
330
422
100
AcDbEntity
  8
0
  6
CONTINUOUS
 62
     7
100
AcDbCircle
 10
0.0
 20
-0.000005055089
 30
0.0
 40
3.810000003889554
100
AcDbArc
 50
179.999923980252
 51
359.999923980252
  0
ARC
  5
424
330
422
100
AcDbEntity
  8
0
  6
CONTINUOUS
 62
     7
100
AcDbCircle
 10
0.0
 20
0.000005055089
 30
0.0
 40
3.810000003889553
100
AcDbArc
 50
359.999923980252
 51
179.999923980252
  0
INSERT
  5
425
330
422
100
AcDbEntity
  8
0
  6
CONTINUOUS
 62
     7
100
AcDbBlockReference
  2
DRIL_SYMBOL_0$6
 10
0.0
 20
0.0
 30
0.0
  0
ENDBLK
  5
427
330
422
100
AcDbEntity
  8
0
100
AcDbBlockEnd
  0
BLOCK
  5
42C
330
428
100
AcDbEntity
  8
0
100
AcDbBlockBegin
  2
DRIL_HOLE_1$3
 70
     0
 10
0.0
 20
0.0
 30
0.0
  3
DRIL_HOLE_1$3
  1

  0
ARC
  5
429
330
428
100
AcDbEntity
  8
0
  6
CONTINUOUS
 62
     7
100
AcDbCircle
 10
0.0
 20
-0.000010952692
 30
0.0
 40
8.255000008427366
100
AcDbArc
 50
179.999923980252
 51
359.999923980252
  0
ARC
  5
42A
330
428
100
AcDbEntity
  8
0
  6
CONTINUOUS
 62
     7
100
AcDbCircle
 10
0.0
 20
0.000010952692
 30
0.0
 40
8.255000008427366
100
AcDbArc
 50
359.999923980252
 51
179.999923980252
  0
INSERT
  5
42B
330
428
100
AcDbEntity
  8
0
  6
CONTINUOUS
 62
     7
100
AcDbBlockReference
  2
DRIL_SYMBOL_1$3
 10
0.0
 20
0.0
 30
0.0
  0
ENDBLK
  5
42D
330
428
100
AcDbEntity
  8
0
100
AcDbBlockEnd
  0
BLOCK
  5
432
330
42E
100
AcDbEntity
  8
0
100
AcDbBlockBegin
  2
DRIL_HOLE_6$5
 70
     0
 10
0.0
 20
0.0
 30
0.0
  3
DRIL_HOLE_6$5
  1

  0
ARC
  5
42F
330
42E
100
AcDbEntity
  8
0
  6
CONTINUOUS
 62
     7
100
AcDbCircle
 10
0.0
 20
-0.000054763459
 30
0.0
 40
41.27500004213683
100
AcDbArc
 50
179.999923980252
 51
359.999923980252
  0
ARC
  5
430
330
42E
100
AcDbEntity
  8
0
  6
CONTINUOUS
 62
     7
100
AcDbCircle
 10
0.0
 20
0.000054763459
 30
0.0
 40
41.27500004213683
100
AcDbArc
 50
359.999923980252
 51
179.999923980252
  0
INSERT
  5
431
330
42E
100
AcDbEntity
  8
0
  6
CONTINUOUS
 62
     7
100
AcDbBlockReference
  2
DRIL_SYMBOL_6$5
 10
0.0
 20
0.0
 30
0.0
  0
ENDBLK
  5
433
330
42E
100
AcDbEntity
  8
0
100
AcDbBlockEnd
  0
BLOCK
  5
438
330
434
100
AcDbEntity
  8
0
100
AcDbBlockBegin
  2
DRIL_HOLE_0$7
 70
     0
 10
0.0
 20
0.0
 30
0.0
  3
DRIL_HOLE_0$7
  1

  0
ARC
  5
435
330
434
100
AcDbEntity
  8
0
  6
CONTINUOUS
 62
     7
100
AcDbCircle
 10
0.0
 20
-0.000005897603
 30
0.0
 40
4.445000004537812
100
AcDbArc
 50
179.999923980252
 51
359.999923980252
  0
ARC
  5
436
330
434
100
AcDbEntity
  8
0
  6
CONTINUOUS
 62
     7
100
AcDbCircle
 10
0.0
 20
0.000005897603
 30
0.0
 40
4.445000004537812
100
AcDbArc
 50
359.999923980252
 51
179.999923980252
  0
INSERT
  5
437
330
434
100
AcDbEntity
  8
0
  6
CONTINUOUS
 62
     7
100
AcDbBlockReference
  2
DRIL_SYMBOL_0$7
 10
0.0
 20
0.0
 30
0.0
  0
ENDBLK
  5
439
330
434
100
AcDbEntity
  8
0
100
AcDbBlockEnd
  0
BLOCK
  5
43E
330
43A
100
AcDbEntity
  8
0
100
AcDbBlockBegin
  2
DRIL_HOLE_0$8
 70
     0
 10
0.0
 20
0.0
 30
0.0
  3
DRIL_HOLE_0$8
  1

  0
ARC
  5
43B
330
43A
100
AcDbEntity
  8
0
  6
CONTINUOUS
 62
     7
100
AcDbCircle
 10
0.0
 20
-0.000006740118
 30
0.0
 40
5.080000005186071
100
AcDbArc
 50
179.999923980252
 51
359.999923980252
  0
ARC
  5
43C
330
43A
100
AcDbEntity
  8
0
  6
CONTINUOUS
 62
     7
100
AcDbCircle
 10
0.0
 20
0.000006740118
 30
0.0
 40
5.080000005186071
100
AcDbArc
 50
359.999923980252
 51
179.999923980252
  0
INSERT
  5
43D
330
43A
100
AcDbEntity
  8
0
  6
CONTINUOUS
 62
     7
100
AcDbBlockReference
  2
DRIL_SYMBOL_0$8
 10
0.0
 20
0.0
 30
0.0
  0
ENDBLK
  5
43F
330
43A
100
AcDbEntity
  8
0
100
AcDbBlockEnd
  0
BLOCK
  5
444
330
440
100
AcDbEntity
  8
0
100
AcDbBlockBegin
  2
DRIL_HOLE_1$2
 70
     0
 10
0.0
 20
0.0
 30
0.0
  3
DRIL_HOLE_1$2
  1

  0
ARC
  5
441
330
440
100
AcDbEntity
  8
0
  6
CONTINUOUS
 62
     7
100
AcDbCircle
 10
0.0
 20
-0.000010110177
 30
0.0
 40
7.620000007779107
100
AcDbArc
 50
179.999923980252
 51
359.999923980252
  0
ARC
  5
442
330
440
100
AcDbEntity
  8
0
  6
CONTINUOUS
 62
     7
100
AcDbCircle
 10
0.0
 20
0.000010110177
 30
0.0
 40
7.620000007779106
100
AcDbArc
 50
359.999923980252
 51
179.999923980252
  0
INSERT
  5
443
330
440
100
AcDbEntity
  8
0
  6
CONTINUOUS
 62
     7
100
AcDbBlockReference
  2
DRIL_SYMBOL_1$2
 10
0.0
 20
0.0
 30
0.0
  0
ENDBLK
  5
445
330
440
100
AcDbEntity
  8
0
100
AcDbBlockEnd
  0
BLOCK
  5
454
330
453
100
AcDbEntity
  8
0
100
AcDbBlockBegin
  2
*D226
 70
     1
 10
0.0
 20
0.0
 30
0.0
  3
*D226
  1

  0
LINE
  5
456
330
453
100
AcDbEntity
  8
BEMASSUNG
  6
CONTINUOUS
 62
     0
100
AcDbLine
 10
-66.399111250508
 20
39.343204699697
 30
0.0
 11
-64.899111250508
 21
39.343204699697
 31
0.0
  0
LINE
  5
457
330
453
100
AcDbEntity
  8
BEMASSUNG
  6
CONTINUOUS
 62
     0
100
AcDbLine
 10
-64.899111250508
 20
39.343204699697
 30
0.0
 11
-54.728769701566
 21
33.17772998493
 31
0.0
  0
MTEXT
  5
458
330
453
100
AcDbEntity
  8
BEMASSUNG
 62
     0
100
AcDbMText
 10
-72.489111250508
 20
39.343204699697
 30
0.0
 40
3.0
 41
0.0
 71
     5
 72
     1
  1
\A1;R62.5
  0
SOLID
  5
459
330
453
100
AcDbEntity
  8
BEMASSUNG
 62
     0
100
AcDbTrace
 10
-54.85837020932
 20
32.963945728283
 30
0.0
 11
-54.599169193813
 21
33.391514241577
 31
0.0
 12
-53.446064161686
 22
32.400126938408
 32
0.0
 13
-53.446064161686
 23
32.400126938408
 33
0.0
  0
POINT
  5
45A
330
453
100
AcDbEntity
  8
DEFPOINTS
 62
     0
100
AcDbPoint
 10
-53.446064161686
 20
32.400126938408
 30
0.0
  0
POINT
  5
45B
330
453
100
AcDbEntity
  8
DEFPOINTS
 62
     0
100
AcDbPoint
 10
0.0
 20
0.0
 30
0.0
  0
ENDBLK
  5
455
330
453
100
AcDbEntity
  8
0
100
AcDbBlockEnd
  0
BLOCK
  5
45E
330
45D
100
AcDbEntity
  8
0
100
AcDbBlockBegin
  2
*D227
 70
     1
 10
0.0
 20
0.0
 30
0.0
  3
*D227
  1

  0
LINE
  5
460
330
45D
100
AcDbEntity
  8
BEMASSUNG
  6
CONTINUOUS
 62
     0
100
AcDbLine
 10
-31.791265874949
 20
54.439087740713
 30
0.0
 11
-52.521204736793
 21
66.407523522882
 31
0.0
  0
LINE
  5
461
330
45D
100
AcDbEntity
  8
BEMASSUNG
  6
CONTINUOUS
 62
     0
100
AcDbLine
 10
-63.041265874949
 20
0.312500004185
 30
0.0
 11
-83.771204736793
 21
12.280935786355
 31
0.0
  0
LINE
  5
462
330
45D
100
AcDbEntity
  8
BEMASSUNG
  6
CONTINUOUS
 62
     0
100
AcDbLine
 10
-52.405179333008
 20
64.608485417206
 30
0.0
 11
-66.362192404997
 21
40.434229654619
 31
0.0
  0
LINE
  5
463
330
45D
100
AcDbEntity
  8
BEMASSUNG
  6
CONTINUOUS
 62
     0
100
AcDbLine
 10
-82.155179333008
 20
13.079973892032
 30
0.0
 11
-68.19816626102
 21
37.254229654619
 31
0.0
  0
SOLID
  5
464
330
45D
100
AcDbEntity
  8
BEMASSUNG
 62
     0
100
AcDbTrace
 10
-52.188672982062
 20
64.483485417206
 30
0.0
 11
-52.621685683954
 21
64.733485417206
 31
0.0
 12
-51.655179333008
 22
65.907523522882
 32
0.0
 13
-51.655179333008
 23
65.907523522882
 33
0.0
  0
SOLID
  5
465
330
45D
100
AcDbEntity
  8
BEMASSUNG
 62
     0
100
AcDbTrace
 10
-82.371685683954
 20
13.204973892032
 30
0.0
 11
-81.938672982062
 21
12.954973892032
 31
0.0
 12
-82.905179333008
 22
11.780935786355
 32
0.0
 13
-82.905179333008
 23
11.780935786355
 33
0.0
  0
MTEXT
  5
466
330
45D
100
AcDbEntity
  8
BEMASSUNG
 62
     0
100
AcDbMText
 10
-67.280179333008
 20
38.844229654619
 30
0.0
 40
3.0
 41
0.0
 71
     5
 72
     1
  1
\A1;62.5
  0
POINT
  5
467
330
45D
100
AcDbEntity
  8
DEFPOINTS
 62
     0
100
AcDbPoint
 10
-31.249999997584
 20
54.126587740713
 30
0.0
  0
POINT
  5
468
330
45D
100
AcDbEntity
  8
DEFPOINTS
 62
     0
100
AcDbPoint
 10
-62.499999997584
 20
0.000000004185
 30
0.0
  0
POINT
  5
469
330
45D
100
AcDbEntity
  8
DEFPOINTS
 62
     0
100
AcDbPoint
 10
-82.905179333008
 20
11.780935786355
 30
0.0
  0
ENDBLK
  5
45F
330
45D
100
AcDbEntity
  8
0
100
AcDbBlockEnd
  0
BLOCK
  5
46B
330
46A
100
AcDbEntity
  8
0
100
AcDbBlockBegin
  2
$TD_AUDIT_GENERATED__0_
 70
     0
 10
0.0
 20
0.0
 30
0.0
  3
$TD_AUDIT_GENERATED__0_
  1

  0
ENDBLK
  5
46C
330
46A
100
AcDbEntity
  8
0
100
AcDbBlockEnd
  0
ENDSEC
  0
SECTION
  2
ENTITIES
  0
ARC
  5
446
330
1F
100
AcDbEntity
  8
0
  6
CONTINUOUS
 62
     7
100
AcDbCircle
 10
0.0
 20
0.0
 30
0.0
 40
67.0
100
AcDbArc
 50
130.366620280077
 51
169.633379322988
  0
ARC
  5
447
330
1F
100
AcDbEntity
  8
0
  6
CONTINUOUS
 62
     7
100
AcDbCircle
 10
0.0
 20
0.0
 30
0.0
 40
58.0
100
AcDbArc
 50
131.089946621777
 51
168.910111758764
  0
ARC
  5
448
330
1F
100
AcDbEntity
  8
BEMASSUNG
  6
CONTINUOUS
 62
    12
100
AcDbCircle
 10
0.0
 20
0.0
 30
0.0
 40
62.5
100
AcDbArc
 50
120.0
 51
180.0
  0
CIRCLE
  5
449
330
1F
100
AcDbEntity
  8
0
  6
CONTINUOUS
 62
     7
100
AcDbCircle
 10
-31.25
 20
54.12659
 30
0.0
 40
4.25
  0
CIRCLE
  5
44A
330
1F
100
AcDbEntity
  8
0
  6
CONTINUOUS
 62
     7
100
AcDbCircle
 10
-62.5
 20
0.0
 30
0.0
 40
4.25
  0
ARC
  5
44B
330
1F
100
AcDbEntity
  8
0
  6
CONTINUOUS
 62
     7
100
AcDbCircle
 10
-31.25
 20
54.12659
 30
0.0
 40
12.0
100
AcDbArc
 50
30.0
 51
190.263669581809
  0
ARC
  5
44C
330
1F
100
AcDbEntity
  8
0
  6
CONTINUOUS
 62
     7
100
AcDbCircle
 10
-62.5
 20
0.0
 30
0.0
 40
12.0
100
AcDbArc
 50
109.736339200433
 51
270.0
  0
LINE
  5
44D
330
1F
100
AcDbEntity
  8
0
  6
CONTINUOUS
 62
     7
100
AcDbLine
 10
-35.451279846829
 20
43.403299617226
 30
0.0
 11
-18.130719578259
 21
53.403329750801
 31
0.0
  0
LINE
  5
44E
330
1F
100
AcDbEntity
  8
0
  6
CONTINUOUS
 62
     7
100
AcDbLine
 10
-55.314
 20
8.999999999787
 30
0.0
 11
-55.314
 21
-11.0
 31
0.0
  0
LINE
  5
44F
330
1F
100
AcDbEntity
  8
0
  6
CONTINUOUS
 62
     7
100
AcDbLine
 10
-20.857695154587
 20
60.12659
 30
0.0
 11
-17.764694174474
 21
54.769355154585
 31
0.0
  0
LINE
  5
450
330
1F
100
AcDbEntity
  8
0
  6
CONTINUOUS
 62
     7
100
AcDbLine
 10
-62.5
 20
-12.0
 30
0.0
 11
-56.314
 21
-12.0
 31
0.0
  0
DIMENSION
  5
451
330
1F
100
AcDbEntity
  8
BEMASSUNG
  6
CONTINUOUS
 62
    12
100
AcDbDimension
  2
*D226
 10
0.0
 20
0.0
 30
0.0
 11
-72.489111250508
 21
39.343204699697
 31
0.0
 70
   164
  3
STANDARD
100
AcDbRadialDimension
 15
-53.446064161686
 25
32.400126938408
 35
0.0
 40
0.0
1001
ACAD
1000
DSTYLE
1002
{
1070
   141
1040
0.0
1070
   271
1070
     1
1070
    41
1040
1.5
1070
   140
1040
3.0
1002
}
  0
DIMENSION
  5
45C
330
1F
100
AcDbEntity
  8
BEMASSUNG
  6
CONTINUOUS
 62
    12
100
AcDbDimension
  2
*D227
 10
-82.905179333008
 20
11.780935786355
 30
0.0
 11
-67.280179333008
 21
38.844229654619
 31
0.0
 70
    33
  3
STANDARD
100
AcDbAlignedDimension
 13
-31.249999997584
 23
54.126587740713
 33
0.0
 14
-62.499999997584
 24
0.000000004185
 34
0.0
1001
ACAD
1000
DSTYLE
1002
{
1070
   271
1070
     1
1070
    41
1040
1.5
1070
    43
1040
1.0
1070
    42
1040
0.625
1070
    44
1040
1.0
1070
   140
1040
3.0
1002
}
  0
TEXT
  5
46D
330
1F
100
AcDbEntity
  8
STANDARD
  6
CONTINUOUS
 62
     5
100
AcDbText
 10
-68.536567367327
 20
101.276089260877
 30
0.0
 40
5.0
  1
T16 No 43
  7
ARIAL
100
AcDbText
  0
TEXT
  5
46E
330
1F
100
AcDbEntity
  8
STANDARD
  6
CONTINUOUS
 62
     5
100
AcDbText
 10
-68.536567367327
 20
93.776089260877
 30
0.0
 40
5.0
  1
43.05.30
  7
ARIAL
100
AcDbText
  0
TEXT
  5
46F
330
1F
100
AcDbEntity
  8
STANDARD
  6
CONTINUOUS
 62
     5
100
AcDbText
 10
-68.536567367327
 20
86.276089260877
 30
0.0
 40
5.0
  1
Stahl Feinblech DC01 1,0 mm dick
  7
ARIAL
100
AcDbText
  0
ARC
  5
470
330
1F
100
AcDbEntity
  8
BEMASSUNG
  6
CONTINUOUS
 62
     7
100
AcDbCircle
 10
-56.314
 20
-11.0
 30
0.0
 40
1.0
100
AcDbArc
 50
270.0
 51
0.0
  0
ARC
  5
471
330
1F
100
AcDbEntity
  8
BEMASSUNG
  6
CONTINUOUS
 62
     7
100
AcDbCircle
 10
-56.314
 20
8.999999999787
 30
0.0
 40
1.0
100
AcDbArc
 50
0.0
 51
79.094414508965
  0
ARC
  5
472
330
1F
100
AcDbEntity
  8
BEMASSUNG
  6
CONTINUOUS
 62
     7
100
AcDbCircle
 10
-55.935617662478
 20
10.963880550109
 30
0.0
 40
1.0
100
AcDbArc
 50
168.910111758764
 51
259.094414508966
  0
ARC
  5
473
330
1F
100
AcDbEntity
  8
BEMASSUNG
  6
CONTINUOUS
 62
     7
100
AcDbCircle
 10
-35.951279846829
 20
44.269325021011
 30
0.0
 40
1.0
100
AcDbArc
 50
220.905836414295
 51
300.0
  0
ARC
  5
474
330
1F
100
AcDbEntity
  8
BEMASSUNG
  6
CONTINUOUS
 62
     7
100
AcDbCircle
 10
-37.46285340404
 20
42.959689396495
 30
0.0
 40
1.0
100
AcDbArc
 50
40.905836414295
 51
131.089946621777
  0
ARC
  5
475
330
1F
100
AcDbEntity
  8
BEMASSUNG
  6
CONTINUOUS
 62
     7
100
AcDbCircle
 10
-18.630719578259
 20
54.269355154585
 30
0.0
 40
1.0
100
AcDbArc
 50
300.0
 51
30.0
  0
ARC
  5
476
330
1F
100
AcDbEntity
  8
BEMASSUNG
  6
CONTINUOUS
 62
     7
100
AcDbCircle
 10
-44.041976808144
 20
51.810271943224
 30
0.0
 40
1.0
100
AcDbArc
 50
310.366620280077
 51
10.263669581809
  0
ARC
  5
477
330
1F
100
AcDbEntity
  8
BEMASSUNG
  6
CONTINUOUS
 62
     7
100
AcDbCircle
 10
-66.890000000993
 20
12.236335240871
 30
0.0
 40
1.0
100
AcDbArc
 50
289.736339200433
 51
349.633379322988
  0
ENDSEC
  0
SECTION
  2
OBJECTS
  0
DICTIONARY
  5
C
330
0
100
AcDbDictionary
  3
ACAD_GROUP
350
D
  3
ACAD_LAYOUT
350
1A
  3
ACAD_MATERIAL
350
43
  3
ACAD_MLEADERSTYLE
350
6B
  3
ACAD_MLINESTYLE
350
17
  3
ACAD_PLOTSETTINGS
350
19
  3
ACAD_SCALELIST
350
47
  3
ACAD_VISUALSTYLE
350
2A
  3
ACDBHEADERROUNDTRIPXREC
350
478
  3
ACDBVARIABLEDICTIONARY
350
499
  0
DICTIONARY
  5
4A0
330
8
100
AcDbDictionary
280
     1
  3
ACAD_XREC_ROUNDTRIP
360
4A1
  0
DICTIONARY
  5
D
102
{ACAD_REACTORS
330
C
102
}
330
C
100
AcDbDictionary
  0
DICTIONARY
  5
1A
102
{ACAD_REACTORS
330
C
102
}
330
C
100
AcDbDictionary
  0
DICTIONARY
  5
43
102
{ACAD_REACTORS
330
C
102
}
330
C
100
AcDbDictionary
  3
BYBLOCK
350
45
  3
BYLAYER
350
44
  3
GLOBAL
350
46
  0
DICTIONARY
  5
6B
102
{ACAD_REACTORS
330
C
102
}
330
C
100
AcDbDictionary
  3
STANDARD
350
6C
  0
DICTIONARY
  5
17
102
{ACAD_REACTORS
330
C
102
}
330
C
100
AcDbDictionary
  3
STANDARD
350
18
  0
DICTIONARY
  5
19
102
{ACAD_REACTORS
330
C
102
}
330
C
100
AcDbDictionary
  0
DICTIONARY
  5
47
102
{ACAD_REACTORS
330
C
102
}
330
C
100
AcDbDictionary
  3
A0
350
48
  3
A1
350
49
  3
A2
350
4A
  3
A3
350
4B
  3
A4
350
4C
  3
A5
350
4D
  3
A6
350
4E
  3
A7
350
4F
  3
A8
350
50
  3
A9
350
51
  3
B0
350
52
  3
B1
350
53
  3
B2
350
54
  3
B3
350
55
  3
B4
350
56
  3
B5
350
57
  3
B6
350
58
  3
B7
350
59
  3
B8
350
5A
  3
B9
350
5B
  3
C0
350
5C
  3
C1
350
5D
  3
C2
350
5E
  3
C3
350
5F
  3
C4
350
60
  3
C5
350
61
  3
C6
350
62
  3
C7
350
63
  3
C8
350
64
  3
C9
350
65
  3
D0
350
66
  3
D1
350
67
  3
D2
350
68
  0
DICTIONARY
  5
2A
102
{ACAD_REACTORS
330
C
102
}
330
C
100
AcDbDictionary
  3
2DWIREFRAME
350
2F
  3
BASIC
350
32
  3
BRIGHTEN
350
36
  3
COLORCHANGE
350
3A
  3
CONCEPTUAL
350
34
  3
DIM
350
35
  3
EDGECOLOROFF
350
3D
  3
FACEPATTERN
350
39
  3
FLAT
350
2B
  3
FLATWITHEDGES
350
2C
  3
GOURAUD
350
2D
  3
GOURAUDWITHEDGES
350
2E
  3
HIDDEN
350
31
  3
JITTEROFF
350
3B
  3
LINEPATTERN
350
38
  3
OVERHANGOFF
350
3C
  3
REALISTIC
350
33
  3
SHADED
350
42
  3
SHADED_WITH_EDGES
350
41
  3
SHADES_OF_GRAY
350
3E
  3
SKETCHY
350
3F
  3
THICKEN
350
37
  3
WIREFRAME
350
30
  3
X-RAY
350
40
  0
DICTIONARY
  5
478
102
{ACAD_REACTORS
330
C
102
}
330
C
100
AcDbDictionary
  3
CEPSNID
350
482
  3
CEPSNTYPE
350
481
  3
DIMSTYLEDATA
350
498
  3
FINGERPRINTGUID
350
483
  3
HYPERLINKBASE
350
47B
  3
INSUNITS
350
480
  3
LAYOUTDICT
350
47D
  3
LWETCUNION
350
47F
  3
PLOTSETDICT
350
47E
  3
PSVPSCALE
350
485
  3
PUCSBASE
350
488
  3
PUCSORGBACK
350
48E
  3
PUCSORGBOTTOM
350
48A
  3
PUCSORGFRONT
350
48D
  3
PUCSORGLEFT
350
48B
  3
PUCSORGRIGHT
350
48C
  3
PUCSORGTOP
350
489
  3
PUCSORTHOREF
350
486
  3
PUCSORTHOVIEW
350
487
  3
STYLESHEET
350
47C
  3
TSTACKALIGN
350
479
  3
TSTACKSIZE
350
47A
  3
UCSBASE
350
491
  3
UCSORGBACK
350
497
  3
UCSORGBOTTOM
350
493
  3
UCSORGFRONT
350
496
  3
UCSORGLEFT
350
494
  3
UCSORGRIGHT
350
495
  3
UCSORGTOP
350
492
  3
UCSORTHOREF
350
48F
  3
UCSORTHOVIEW
350
490
  3
VERSIONGUID
350
484
  0
DICTIONARY
  5
499
102
{ACAD_REACTORS
330
C
102
}
330
C
100
AcDbDictionary
  3
CANNOSCALE
350
4A2
  3
CMLEADERSTYLE
350
49B
  3
CTABLESTYLE
350
49A
  3
DIMASSOC
350
49E
  3
HIDETEXT
350
49F
  3
MSLTSCALE
350
4A3
  0
XRECORD
  5
4A1
102
{ACAD_REACTORS
330
4A0
102
}
330
4A0
100
AcDbXrecord
102
VTR_0.000_0.000_1.000_1.000_GRIDDISPLAY
 70
     3
102
VTR_0.000_0.000_1.000_1.000_GRIDMAJOR
 70
     5
102
VTR_0.000_0.000_1.000_1.000_DEFAULTLIGHTING
280
     1
102
VTR_0.000_0.000_1.000_1.000_DEFAULTLIGHTINGTYPE
 70
     1
102
VTR_0.000_0.000_1.000_1.000_BRIGHTNESS
141
0.0
102
VTR_0.000_0.000_1.000_1.000_CONTRAST
142
0.0
  0
MATERIAL
  5
45
102
{ACAD_REACTORS
330
43
102
}
102
{ACAD_XDICTIONARY
360
4A6
102
}
330
43
100
AcDbMaterial
  1
BYBLOCK
  0
MATERIAL
  5
44
102
{ACAD_REACTORS
330
43
102
}
102
{ACAD_XDICTIONARY
360
4A4
102
}
330
43
100
AcDbMaterial
  1
BYLAYER
  0
MATERIAL
  5
46
102
{ACAD_REACTORS
330
43
102
}
102
{ACAD_XDICTIONARY
360
4A8
102
}
330
43
100
AcDbMaterial
  1
GLOBAL
  0
ACAD_PROXY_OBJECT
  5
6C
102
{ACAD_REACTORS
330
6B
102
}
330
6B
100
AcDbProxyObject
 90
      499
 91
      505
 93
      610
310
40901902A4063FBFFFFFE056BD1B81E855B9FC0AD7A3703D0AD73F4214DD185B99185C9900AD7A3703D0AC73F90141901A02B5E8DC0F42B1CFC02B5E8DC0F42B1CFE5764000000000000300FC0
340
14
340
0
340
11
340
0
 94
        0
1001
ACAD_MLEADERVER
1070
     2
  0
MLINESTYLE
  5
18
102
{ACAD_REACTORS
330
17
102
}
330
17
100
AcDbMlineStyle
  2
Standard
 70
     0
  3

 62
   256
 51
90.0
 52
90.0
 71
     2
 49
0.5
 62
   256
  6
BYLAYER
 49
-0.5
 62
   256
  6
BYLAYER
  0
ACAD_PROXY_OBJECT
  5
48
102
{ACAD_REACTORS
330
47
102
}
330
47
100
AcDbProxyObject
 90
      499
 91
      503
 93
       41
310
903313A31580
  0
ACAD_PROXY_OBJECT
  5
49
102
{ACAD_REACTORS
330
47
102
}
330
47
100
AcDbProxyObject
 90
      499
 91
      503
 93
      105
310
903313A324000000000000004000
  0
ACAD_PROXY_OBJECT
  5
4A
102
{ACAD_REACTORS
330
47
102
}
330
47
100
AcDbProxyObject
 90
      499
 91
      503
 93
      105
310
903313A344000000000000104000
  0
ACAD_PROXY_OBJECT
  5
4B
102
{ACAD_REACTORS
330
47
102
}
330
47
100
AcDbProxyObject
 90
      499
 91
      503
 93
      105
310
903313A354000000000000144000
  0
ACAD_PROXY_OBJECT
  5
4C
102
{ACAD_REACTORS
330
47
102
}
330
47
100
AcDbProxyObject
 90
      499
 91
      503
 93
      105
310
903313A384000000000000204000
  0
ACAD_PROXY_OBJECT
  5
4D
102
{ACAD_REACTORS
330
47
102
}
330
47
100
AcDbProxyObject
 90
      499
 91
      503
 93
      113
310
904313A31304000000000000244000
  0
ACAD_PROXY_OBJECT
  5
4E
102
{ACAD_REACTORS
330
47
102
}
330
47
100
AcDbProxyObject
 90
      499
 91
      503
 93
      113
310
904313A31364000000000000304000
  0
ACAD_PROXY_OBJECT
  5
4F
102
{ACAD_REACTORS
330
47
102
}
330
47
100
AcDbProxyObject
 90
      499
 91
      503
 93
      113
310
904313A32304000000000000344000
  0
ACAD_PROXY_OBJECT
  5
50
102
{ACAD_REACTORS
330
47
102
}
330
47
100
AcDbProxyObject
 90
      499
 91
      503
 93
      113
310
904313A333040000000000003E4000
  0
ACAD_PROXY_OBJECT
  5
51
102
{ACAD_REACTORS
330
47
102
}
330
47
100
AcDbProxyObject
 90
      499
 91
      503
 93
      113
310
904313A34304000000000000444000
  0
ACAD_PROXY_OBJECT
  5
52
102
{ACAD_REACTORS
330
47
102
}
330
47
100
AcDbProxyObject
 90
      499
 91
      503
 93
      113
310
904313A35304000000000000494000
  0
ACAD_PROXY_OBJECT
  5
53
102
{ACAD_REACTORS
330
47
102
}
330
47
100
AcDbProxyObject
 90
      499
 91
      503
 93
      121
310
905313A3130304000000000000594000
  0
ACAD_PROXY_OBJECT
  5
54
102
{ACAD_REACTORS
330
47
102
}
330
47
100
AcDbProxyObject
 90
      499
 91
      503
 93
      105
310
903323A310000000000000010100
  0
ACAD_PROXY_OBJECT
  5
55
102
{ACAD_REACTORS
330
47
102
}
330
47
100
AcDbProxyObject
 90
      499
 91
      503
 93
      105
310
903343A310000000000000410100
  0
ACAD_PROXY_OBJECT
  5
56
102
{ACAD_REACTORS
330
47
102
}
330
47
100
AcDbProxyObject
 90
      499
 91
      503
 93
      105
310
903383A310000000000000810100
  0
ACAD_PROXY_OBJECT
  5
57
102
{ACAD_REACTORS
330
47
102
}
330
47
100
AcDbProxyObject
 90
      499
 91
      503
 93
      113
310
90431303A310000000000000910100
  0
ACAD_PROXY_OBJECT
  5
58
102
{ACAD_REACTORS
330
47
102
}
330
47
100
AcDbProxyObject
 90
      499
 91
      503
 93
      121
310
9053130303A310000000000001650100
  0
ACAD_PROXY_OBJECT
  5
59
102
{ACAD_REACTORS
330
47
102
}
330
47
100
AcDbProxyObject
 90
      499
 91
      503
 93
      257
310
90E312F31323822203D2031272D3022000000000000200FC000000000000284000
  0
ACAD_PROXY_OBJECT
  5
5A
102
{ACAD_REACTORS
330
47
102
}
330
47
100
AcDbProxyObject
 90
      499
 91
      503
 93
      249
310
90D312F363422203D2031272D3022000000000000240FC000000000000284000
  0
ACAD_PROXY_OBJECT
  5
5B
102
{ACAD_REACTORS
330
47
102
}
330
47
100
AcDbProxyObject
 90
      499
 91
      503
 93
      249
310
90D312F333222203D2031272D3022000000000000280FC000000000000284000
  0
ACAD_PROXY_OBJECT
  5
5C
102
{ACAD_REACTORS
330
47
102
}
330
47
100
AcDbProxyObject
 90
      499
 91
      503
 93
      249
310
90D312F313622203D2031272D30220000000000002C0FC000000000000284000
  0
ACAD_PROXY_OBJECT
  5
5D
102
{ACAD_REACTORS
330
47
102
}
330
47
100
AcDbProxyObject
 90
      499
 91
      503
 93
      249
310
90D332F333222203D2031272D30220000000000002E0FC000000000000284000
  0
ACAD_PROXY_OBJECT
  5
5E
102
{ACAD_REACTORS
330
47
102
}
330
47
100
AcDbProxyObject
 90
      499
 91
      503
 93
      241
310
90C312F3822203D2031272D3022000000000000300FC000000000000284000
  0
ACAD_PROXY_OBJECT
  5
5F
102
{ACAD_REACTORS
330
47
102
}
330
47
100
AcDbProxyObject
 90
      499
 91
      503
 93
      249
310
90D332F313622203D2031272D3022000000000000320FC000000000000284000
  0
ACAD_PROXY_OBJECT
  5
60
102
{ACAD_REACTORS
330
47
102
}
330
47
100
AcDbProxyObject
 90
      499
 91
      503
 93
      241
310
90C312F3422203D2031272D3022000000000000340FC000000000000284000
  0
ACAD_PROXY_OBJECT
  5
61
102
{ACAD_REACTORS
330
47
102
}
330
47
100
AcDbProxyObject
 90
      499
 91
      503
 93
      241
310
90C332F3822203D2031272D3022000000000000360FC000000000000284000
  0
ACAD_PROXY_OBJECT
  5
62
102
{ACAD_REACTORS
330
47
102
}
330
47
100
AcDbProxyObject
 90
      499
 91
      503
 93
      241
310
90C312F3222203D2031272D3022000000000000380FC000000000000284000
  0
ACAD_PROXY_OBJECT
  5
63
102
{ACAD_REACTORS
330
47
102
}
330
47
100
AcDbProxyObject
 90
      499
 91
      503
 93
      241
310
90C332F3422203D2031272D30220000000000003A0FC000000000000284000
  0
ACAD_PROXY_OBJECT
  5
64
102
{ACAD_REACTORS
330
47
102
}
330
47
100
AcDbProxyObject
 90
      499
 91
      503
 93
      161
310
90A3122203D2031272D30224000000000000284000
  0
ACAD_PROXY_OBJECT
  5
65
102
{ACAD_REACTORS
330
47
102
}
330
47
100
AcDbProxyObject
 90
      499
 91
      503
 93
      257
310
90E312D312F3222203D2031272D30220000000000003E0FC000000000000284000
  0
ACAD_PROXY_OBJECT
  5
66
102
{ACAD_REACTORS
330
47
102
}
330
47
100
AcDbProxyObject
 90
      499
 91
      503
 93
      225
310
90A3322203D2031272D302200000000000002100000000000000284000
  0
ACAD_PROXY_OBJECT
  5
67
102
{ACAD_REACTORS
330
47
102
}
330
47
100
AcDbProxyObject
 90
      499
 91
      503
 93
      225
310
90A3622203D2031272D302200000000000006100000000000000284000
  0
ACAD_PROXY_OBJECT
  5
68
102
{ACAD_REACTORS
330
47
102
}
330
47
100
AcDbProxyObject
 90
      499
 91
      503
 93
      249
310
90D31272D3022203D2031272D30220000000000000A100000000000000284000
  0
ACAD_PROXY_OBJECT
  5
2F
102
{ACAD_REACTORS
330
2A
102
}
330
2A
100
AcDbProxyObject
 90
      499
 91
      501
 93
      436
310
42CC9915DA5C99599C985B595049028333333333333E33F0000000000000F90107901411070040501600405405064090741402480A0340
1001
ACAD
1000
AcDbSavedByObjectVersion
1070
     0
  0
ACAD_PROXY_OBJECT
  5
32
102
{ACAD_REACTORS
330
2A
102
}
330
2A
100
AcDbProxyObject
 90
      499
 91
      501
 93
      388
310
4150985CDA58D07406404333333333333E33F0000000000000F90107A41107004050150841D405064090741402480A0350
1001
ACAD
1000
AcDbSavedByObjectVersion
1070
     0
  0
ACAD_PROXY_OBJECT
  5
36
102
{ACAD_REACTORS
330
2A
102
}
330
2A
100
AcDbProxyObject
 90
      499
 91
      501
 93
      428
310
42109C9A59DA1D195B90C409028333333333333E33F0000000000000F9010790141107004050150841D405064090741402480A029950
1001
ACAD
1000
AcDbSavedByObjectVersion
1070
     0
  0
ACAD_PROXY_OBJECT
  5
3A
102
{ACAD_REACTORS
330
2A
102
}
330
2A
100
AcDbProxyObject
 90
      499
 91
      501
 93
      452
310
42D0DBDB1BDC90DA185B99D95104090240C333333333333E33F0000000000000F90108901411070040501508421405064090741402480A0350
1001
ACAD
1000
AcDbSavedByObjectVersion
1070
     0
  0
ACAD_PROXY_OBJECT
  5
34
102
{ACAD_REACTORS
330
2A
102
}
330
2A
100
AcDbProxyObject
 90
      499
 91
      501
 93
      500
310
4290DBDB98D95C1D1D585B10940D028333333333333E33F0000000000000F90107902409070040501000000000018199010841D405064090740C02480A0340
1001
ACAD
1000
AcDbSavedByObjectVersion
1070
     0
  0
ACAD_PROXY_OBJECT
  5
35
102
{ACAD_REACTORS
330
2A
102
}
330
2A
100
AcDbProxyObject
 90
      499
 91
      501
 93
      412
310
40D11A5B50B409028333333333333E33F0000000000000F9010790141107004050150841D405064090741402480A02677FFFFFD0
1001
ACAD
1000
AcDbSavedByObjectVersion
1070
     0
  0
ACAD_PROXY_OBJECT
  5
3D
102
{ACAD_REACTORS
330
2A
102
}
330
2A
100
AcDbProxyObject
 90
      499
 91
      501
 93
      452
310
43115919D950DBDB1BDC93D999916409028333333333333E33F0000000000000F9010790141107004050150841D405064090741402480A0350
1001
ACAD
1000
AcDbSavedByObjectVersion
1070
     0
  0
ACAD_PROXY_OBJECT
  5
39
102
{ACAD_REACTORS
330
2A
102
}
330
2A
100
AcDbProxyObject
 90
      499
 91
      501
 93
      444
310
42D19858D95C185D1D195C9B90F409028333333333333E33F0000000000000F9010790141107004050150841D405064090741402480A0350
1001
ACAD
1000
AcDbSavedByObjectVersion
1070
     0
  0
ACAD_PROXY_OBJECT
  5
2B
102
{ACAD_REACTORS
330
2A
102
}
330
2A
100
AcDbProxyObject
 90
      499
 91
      501
 93
      380
310
41119B185D240901404333333333333E33F0000000000000F9010740A907004050150841D405064090741402480A1B50
1001
ACAD
1000
AcDbSavedByObjectVersion
1070
     0
  0
ACAD_PROXY_OBJECT
  5
2C
102
{ACAD_REACTORS
330
2A
102
}
330
2A
100
AcDbProxyObject
 90
      499
 91
      501
 93
      468
310
43519B185D15DA5D1A115919D95CD0140901404333333333333E33F0000000000000F90107409019070040501600405405064090741402480A1B50
1001
ACAD
1000
AcDbSavedByObjectVersion
1070
     0
  0
ACAD_PROXY_OBJECT
  5
2D
102
{ACAD_REACTORS
330
2A
102
}
330
2A
100
AcDbProxyObject
 90
      499
 91
      501
 93
      404
310
41D1DBDD5C985D5910240902404333333333333E33F0000000000000F9010740A9070040501641D405064090741402480A1B50
1001
ACAD
1000
AcDbSavedByObjectVersion
1070
     0
  0
ACAD_PROXY_OBJECT
  5
2E
102
{ACAD_REACTORS
330
2A
102
}
330
2A
100
AcDbProxyObject
 90
      499
 91
      501
 93
      492
310
4411DBDD5C985D5915DA5D1A115919D95CD0340902404333333333333E33F0000000000000F90107409019070040501600405405064090741402480A1B50
1001
ACAD
1000
AcDbSavedByObjectVersion
1070
     0
  0
ACAD_PROXY_OBJECT
  5
31
102
{ACAD_REACTORS
330
2A
102
}
330
2A
100
AcDbProxyObject
 90
      499
 91
      501
 93
      476
310
41921A5919195B90640502408333333333333E33F0000000000000F901079024090700405020000000000001110200405405064090740C02480A0340
1001
ACAD
1000
AcDbSavedByObjectVersion
1070
     0
  0
ACAD_PROXY_OBJECT
  5
3B
102
{ACAD_REACTORS
330
2A
102
}
330
2A
100
AcDbProxyObject
 90
      499
 91
      501
 93
      428
310
42529A5D1D195C93D999914409028333333333333E33F0000000000000F9010790141107004050150A41D405064090741402480A0350
1001
ACAD
1000
AcDbSavedByObjectVersion
1070
     0
  0
ACAD_PROXY_OBJECT
  5
38
102
{ACAD_REACTORS
330
2A
102
}
330
2A
100
AcDbProxyObject
 90
      499
 91
      501
 93
      444
310
42D31A5B995C185D1D195C9B90E409028333333333333E33F0000000000000F9010790141107004050750841D405064090741402483A0350
1001
ACAD
1000
AcDbSavedByObjectVersion
1070
     0
  0
ACAD_PROXY_OBJECT
  5
3C
102
{ACAD_REACTORS
330
2A
102
}
330
2A
100
AcDbProxyObject
 90
      499
 91
      501
 93
      444
310
42D3DD995C9A185B99D3D999915409028333333333333E33F0000000000000F9010790141107004050150941D405064090741402480A0350
1001
ACAD
1000
AcDbSavedByObjectVersion
1070
     0
  0
ACAD_PROXY_OBJECT
  5
33
102
{ACAD_REACTORS
330
2A
102
}
330
2A
100
AcDbProxyObject
 90
      499
 91
      501
 93
      428
310
425499585B1A5CDD1A58D08409038333333333333E33F0000000000000F9010740A907004050150800405405064090740C02480A1B40
1001
ACAD
1000
AcDbSavedByObjectVersion
1070
     0
  0
ACAD_PROXY_OBJECT
  5
42
102
{ACAD_REACTORS
330
2A
102
}
330
2A
100
AcDbProxyObject
 90
      499
 91
      501
 93
      420
310
4194DA1859195911B40902404333333333333E33F0000000000000F9010740A41107004050150800405405064090840C02480A0B40
1001
ACAD
1000
AcDbSavedByObjectVersion
1070
     0
  0
ACAD_PROXY_OBJECT
  5
41
102
{ACAD_REACTORS
330
2A
102
}
330
2A
100
AcDbProxyObject
 90
      499
 91
      501
 93
      516
310
4454DA18591959081DDA5D1A08195919D95CD1A40902404333333333333E33F0000000000000F901074090142907004050250800405405064090740C02480A0B40
1001
ACAD
1000
AcDbSavedByObjectVersion
1070
     0
  0
ACAD_PROXY_OBJECT
  5
3E
102
{ACAD_REACTORS
330
2A
102
}
330
2A
100
AcDbProxyObject
 90
      499
 91
      501
 93
      532
310
4394DA1859195CC81BD98811DC985E5174090240C333333333333E33F0000000000000F901079024090741D01000000000000111010841D405064090740C02480A0340
1001
ACAD
1000
AcDbSavedByObjectVersion
1070
     0
  0
ACAD_PROXY_OBJECT
  5
3F
102
{ACAD_REACTORS
330
2A
102
}
330
2A
100
AcDbProxyObject
 90
      499
 91
      501
 93
      476
310
41D4DAD95D18DA1E51840502408333333333333E33F0000000000000F901079024090741D01000000000000111010B41D405064090741802480A0340
1001
ACAD
1000
AcDbSavedByObjectVersion
1070
     0
  0
ACAD_PROXY_OBJECT
  5
37
102
{ACAD_REACTORS
330
2A
102
}
330
2A
100
AcDbProxyObject
 90
      499
 91
      501
 93
      412
310
41D51A1A58DAD95B90D409028333333333333E33F0000000000000F9010790141107004050150C41D405064090741402480A0350
1001
ACAD
1000
AcDbSavedByObjectVersion
1070
     0
  0
ACAD_PROXY_OBJECT
  5
30
102
{ACAD_REACTORS
330
2A
102
}
330
2A
100
AcDbProxyObject
 90
      499
 91
      501
 93
      420
310
4255DA5C99599C985B595059028333333333333E33F0000000000000F90107901411070040501600405405064090740C02480A0340
1001
ACAD
1000
AcDbSavedByObjectVersion
1070
     0
  0
ACAD_PROXY_OBJECT
  5
40
102
{ACAD_REACTORS
330
2A
102
}
330
2A
100
AcDbProxyObject
 90
      499
 91
      501
 93
      404
310
41560B54985E51940902404000000000000E03F0000000000000F9010740501907004050150841D405064090740C02480A1B40
1001
ACAD
1000
AcDbSavedByObjectVersion
1070
     0
  0
XRECORD
  5
482
102
{ACAD_REACTORS
330
478
102
}
330
478
100
AcDbXrecord
340
0
  0
XRECORD
  5
481
102
{ACAD_REACTORS
330
478
102
}
330
478
100
AcDbXrecord
 90
        0
  0
XRECORD
  5
498
102
{ACAD_REACTORS
330
478
102
}
330
478
100
AcDbXrecord
1000
DSTYLE
1002
{
1070
   340
340
11
1002
}
  0
XRECORD
  5
483
102
{ACAD_REACTORS
330
478
102
}
330
478
100
AcDbXrecord
  1
{A3B7545D-E5D9-4D29-A7E9-1438051C048D}
  0
XRECORD
  5
47B
102
{ACAD_REACTORS
330
478
102
}
330
478
100
AcDbXrecord
  1

  0
XRECORD
  5
480
102
{ACAD_REACTORS
330
478
102
}
330
478
100
AcDbXrecord
 90
        4
  0
XRECORD
  5
47D
102
{ACAD_REACTORS
330
478
102
}
330
478
100
AcDbXrecord
340
1A
  0
XRECORD
  5
47F
102
{ACAD_REACTORS
330
478
102
}
330
478
100
AcDbXrecord
 90
    10781
  0
XRECORD
  5
47E
102
{ACAD_REACTORS
330
478
102
}
330
478
100
AcDbXrecord
340
19
  0
XRECORD
  5
485
102
{ACAD_REACTORS
330
478
102
}
330
478
100
AcDbXrecord
 40
0.0
  0
XRECORD
  5
488
102
{ACAD_REACTORS
330
478
102
}
330
478
100
AcDbXrecord
340
0
  0
XRECORD
  5
48E
102
{ACAD_REACTORS
330
478
102
}
330
478
100
AcDbXrecord
 10
0.0
 20
0.0
 30
0.0
  0
XRECORD
  5
48A
102
{ACAD_REACTORS
330
478
102
}
330
478
100
AcDbXrecord
 10
0.0
 20
0.0
 30
0.0
  0
XRECORD
  5
48D
102
{ACAD_REACTORS
330
478
102
}
330
478
100
AcDbXrecord
 10
0.0
 20
0.0
 30
0.0
  0
XRECORD
  5
48B
102
{ACAD_REACTORS
330
478
102
}
330
478
100
AcDbXrecord
 10
0.0
 20
0.0
 30
0.0
  0
XRECORD
  5
48C
102
{ACAD_REACTORS
330
478
102
}
330
478
100
AcDbXrecord
 10
0.0
 20
0.0
 30
0.0
  0
XRECORD
  5
489
102
{ACAD_REACTORS
330
478
102
}
330
478
100
AcDbXrecord
 10
0.0
 20
0.0
 30
0.0
  0
XRECORD
  5
486
102
{ACAD_REACTORS
330
478
102
}
330
478
100
AcDbXrecord
340
0
  0
XRECORD
  5
487
102
{ACAD_REACTORS
330
478
102
}
330
478
100
AcDbXrecord
 70
     0
  0
XRECORD
  5
47C
102
{ACAD_REACTORS
330
478
102
}
330
478
100
AcDbXrecord
  1

  0
XRECORD
  5
479
102
{ACAD_REACTORS
330
478
102
}
330
478
100
AcDbXrecord
 90
        1
  0
XRECORD
  5
47A
102
{ACAD_REACTORS
330
478
102
}
330
478
100
AcDbXrecord
 90
       70
  0
XRECORD
  5
491
102
{ACAD_REACTORS
330
478
102
}
330
478
100
AcDbXrecord
340
0
  0
XRECORD
  5
497
102
{ACAD_REACTORS
330
478
102
}
330
478
100
AcDbXrecord
 10
0.0
 20
0.0
 30
0.0
  0
XRECORD
  5
493
102
{ACAD_REACTORS
330
478
102
}
330
478
100
AcDbXrecord
 10
0.0
 20
0.0
 30
0.0
  0
XRECORD
  5
496
102
{ACAD_REACTORS
330
478
102
}
330
478
100
AcDbXrecord
 10
0.0
 20
0.0
 30
0.0
  0
XRECORD
  5
494
102
{ACAD_REACTORS
330
478
102
}
330
478
100
AcDbXrecord
 10
0.0
 20
0.0
 30
0.0
  0
XRECORD
  5
495
102
{ACAD_REACTORS
330
478
102
}
330
478
100
AcDbXrecord
 10
0.0
 20
0.0
 30
0.0
  0
XRECORD
  5
492
102
{ACAD_REACTORS
330
478
102
}
330
478
100
AcDbXrecord
 10
0.0
 20
0.0
 30
0.0
  0
XRECORD
  5
48F
102
{ACAD_REACTORS
330
478
102
}
330
478
100
AcDbXrecord
340
0
  0
XRECORD
  5
490
102
{ACAD_REACTORS
330
478
102
}
330
478
100
AcDbXrecord
 70
     0
  0
XRECORD
  5
484
102
{ACAD_REACTORS
330
478
102
}
330
478
100
AcDbXrecord
  1
{FAEB1C32-E019-11D5-929B-00C0DF256EC4}
  0
DICTIONARYVAR
  5
4A2
102
{ACAD_REACTORS
330
499
102
}
330
499
100
DictionaryVariables
280
     0
  1
1:1
  0
DICTIONARYVAR
  5
49B
102
{ACAD_REACTORS
330
499
102
}
330
499
100
DictionaryVariables
280
     0
  1
Standard
  0
DICTIONARYVAR
  5
49A
102
{ACAD_REACTORS
330
499
102
}
330
499
100
DictionaryVariables
280
     0
  1
Standard
  0
DICTIONARYVAR
  5
49E
102
{ACAD_REACTORS
330
499
102
}
330
499
100
DictionaryVariables
280
     0
  1
2
  0
DICTIONARYVAR
  5
49F
102
{ACAD_REACTORS
330
499
102
}
330
499
100
DictionaryVariables
280
     0
  1
1
  0
DICTIONARYVAR
  5
4A3
102
{ACAD_REACTORS
330
499
102
}
330
499
100
DictionaryVariables
280
     0
  1
1
  0
DICTIONARY
  5
4A6
330
45
100
AcDbDictionary
280
     1
  3
ACAD_XREC_ROUNDTRIP
360
4A7
  0
DICTIONARY
  5
4A4
330
44
100
AcDbDictionary
280
     1
  3
ACAD_XREC_ROUNDTRIP
360
4A5
  0
DICTIONARY
  5
4A8
330
46
100
AcDbDictionary
280
     1
  3
ACAD_XREC_ROUNDTRIP
360
4A9
  0
XRECORD
  5
4A7
102
{ACAD_REACTORS
330
4A6
102
}
330
4A6
100
AcDbXrecord
102
MATERIAL
148
0.0
149
0.0
149
0.0
 93
        0
 94
      127
282
     0
 72
     1
 77
     1
171
     1
175
     1
179
     1
273
     0
  0
XRECORD
  5
4A5
102
{ACAD_REACTORS
330
4A4
102
}
330
4A4
100
AcDbXrecord
102
MATERIAL
148
0.0
149
0.0
149
0.0
 93
        0
 94
      127
282
     0
 72
     1
 77
     1
171
     1
175
     1
179
     1
273
     0
  0
XRECORD
  5
4A9
102
{ACAD_REACTORS
330
4A8
102
}
330
4A8
100
AcDbXrecord
102
MATERIAL
148
0.0
149
0.0
149
0.0
 93
        0
 94
      127
282
     0
 72
     1
 77
     1
171
     1
175
     1
179
     1
273
     0
  0
ENDSEC
  0
EOF
